Filecrypt zeigt vereinzelt Files als "n/a". Die Downloads sind trotzdem komplett.

DNS SERVER AENDERNum der staatlichen Zensur zu umgehen. Sollten wir von eurem Provider geseprrt werden, nutzt den TOR BROWSER oder ändert euren DNS SERVER.

Filmwünsche können bei uns im Forum abgegeben werden

Wir Speichern Nicht




 
 
 
Top Releases
Ant-Man.and.the.Wasp.2018.Ge...
Mamma.Mia.Here.We.Go.Again.2...
Operation.Red.Sea.2018.Germa...
Mamma.Mia.Here.We.Go.Again.2...
Mamma.Mia.Here.We.Go.Again.2...
Mamma.Mia.Here.We.Go.Again.2...
Blue.My.Mind.2018.German.720...
Blue.My.Mind.2018.German.108...
The.Equalizer.2.2018.German....
The.Equalizer.2.German.DL.AC...

Cinedubs
Sicario.2.2018.German.DL.AC3...
Juliet.Naked.2018.GERMAN.DL....
Juliet.Naked.2018.GERMAN.DL....
10x10.2018.German.AC3D.DL.10...
Predator.Upgrade.German.DL.A...
Predator.Upgrade.German.DL.A...
10×10.2018.German.AC3D.DL.1...
10×10.2018.German.AC3D.DL.7...
Sicario.2.German.DL.AC3.Dubb...
Sicario.2.German.DL.AC3.Dubb...

Neuerscheinungen 2017-18
The.Fog.Nebel.des.Grauens.19...
The.Fog.Nebel.des.Grauens.19...
1000.Yards.Zwischen.Leben.un...
1000.Yards.Zwischen.Leben.un...
Escape.Plan.2.Hades.2018.Ger...
Escape.Plan.2.Hades.2018.Ger...
Import.Export.2007.German.10...
Die.Unzertrennlichen.1988.Ge...
Der.Falke.und.der.Schneemann...
Mein.Name.ist.Somebody.Germa...

XXX
GirlFap.E37.Kendal.Watch.Me....
KimberLeeLive.18.10.22.Drain...
FullOfJOI.18.10.29.Brooklyn....
GapeLand.18.10.31.Lilu.Moon....
JaysPOV.18.10.29.Kiara.Cole....
GingerPatch.18.10.30.Nora.Iv...
InterracialPass.18.10.26.Kyl...
Killergram.18.10.31.Misha.Ma...
JulesJordan.18.10.28.Keisha....
KarupsHA.18.10.29.Kyler.Quin...
GirlsDoPorn.E468.19.Years.Ol...
JulesJordan.18.10.31.Alena.C...
GirlsDoPorn.E470.19.Years.Ol...
InTheCrack.E1465.Makenna.Blu...
DaughterSwap.18.10.30.Chanel...
GiveMePink.18.10.30.Liv.Reva...
GirlsWay.18.10.29.Lyra.Law.E...
GirlsDoPorn.E469.24.Years.Ol...
KimberLeeLive.18.10.26.Caden...
FoxxedUp.18.10.26.Cristi.Ann...

3D
Skyscraper.3D.2018.MULTi.COM...
Ant-Man.And.The.Wasp.3D.2018...
Ant.Man.and.the.Wasp.3D.2018...
Die.Unglaublichen.2.3D.2018....
Die.Unglaublichen.2.2018.3D....
Die.Unglaublichen.2.2018.3D....
Sharknado.6.The.Last.One.3D....
Deep.Kleine.Helden.der.Tiefs...
Deep.3D.2017.MULTI.COMPLETE....
Detective.Dee.und.die.Legend...
Detective.Dee.und.die.Legend...
Skyscraper.3D.German.DL.AC3....
Ant-Man.and.the.Wasp.2018.3D...
Jurassic.World.Das.gefallene...
Jurassic.World.Das.gefallene...

Old_Stuff
Detective.Dee.und.das.Geheim...
Detective.Dee.Und.Der.Fluch....
Ghost.Rider.Spirit.of.Vengea...
Species.IV.Das.Erwachen.2007...
Species.IV.Das.Erwachen.2007...
Hotel.Transsilvanien.2012.Ge...
The.Dead.2010.German.DL.1080...
The.Dead.2.India.2013.German...
Britney.Spears.Live.The.Femm...
Buffy.The.Vampire.Slayer.199...
IMAX.Ride.Around.The.World.2...
Schimanski.-.Duisburg.Ruhror...
Akte.X.S02.German.DTS.DL.108...
How.I.Met.Your.Mother.S02.Ge...
Akte.X.S01.German.DTS.DL.108...

Filme
Thor.Tales.of.Asgard.2011.Ge...
Captain.America.REMASTERED.G...
The.Sun.at.Midnight.Eine.aus...
The.Gate.Die.Unterirdischen....
The.Sun.at.Midnight.Eine.aus...
Thunderbirds.Are.Go.1966.Ger...
Ti.Lung.Duell.ohne.Gnade.197...
Der.Spion.und.sein.Bruder.20...
Ticker.2001.German.1080p.HDT...
Ticket.Out.Flucht.ins.Ungewi...
Tiger.and.Dragon.2000.German...
Taxi.5.2018.German.DL.1080p....
Adventures.in.Babysitting.Di...
Remainder.2015.German.AC3D.D...
Devour.Der.schwarze.Pfad.200...
Disturbia.Auch.Killer.haben....
Terminator.2.Tag.der.Abrechn...
Ki.und.Ka.2016.German.1080p....
Import.Export.2007.German.72...
Die.Unzertrennlichen.1988.Ge...
Der.Falke.und.der.Schneemann...
Der.kleine.Daeumling.1958.Ge...
Papst.Franziskus.Ein.Mann.se...
Angst.Das.Camp.des.Schrecken...

 
 
Captain.America.REMASTERED.GERMAN.1990.DL.1080P.BLURAY.X264-AMBASSADOR

Jahr: 1990
Genre: Action, Sci-Fi
Sprache: Deutsch DTS | Englisch DTS
Laufzeit: 1h 37mn
Bitrate: 16.8 Mbps
Format: MKV
Größe: 11.4 GiB
Release:

Beschreibung:

1943 wird Steve Rogers durch das gleiche Serum zu Captain America, das auch den schier unbesiegbaren „Red Skull“ im faschistischen Italien erschuf. Captain America soll die Raketen des Feindes vernichten, wird jedoch gefangen und an eine Intercontinentalrakete mit Ziel auf das Weiße Haus gebunden. Kurz vor dem Aufprall gelingt es ihm, – fotografiert von dem jungen Tom Kimball – die Flugbahn zu ändern. Captain America rast ins ewige Eis des Nordpols. Erst 40 Jahre später wird er wieder zum Leben erweckt und muß erneut gegen Red Skull antreten. Der hat Kimball, der es zum US-Präsidenten gebracht hat, entführt. Der Captain sorgt dafür, daß die freie Welt wieder aufatmen kann.



Complete name                            : ar-captainamerica-1080p.mkv
Format                                   : Matroska
Format version                           : Version 4 / Version 2
File size                                : 11.4 GiB
Duration                                 : 1h 37mn
Overall bit rate                         : 16.8 Mbps
Encoded date                             : UTC 2015-05-03 20:34:09
Writing application                      : mkvmerge v6.9.1 ('Blue Panther') 32bit built on Apr 18 2014 18:15:44
Writing library                          : libebml v1.3.0 + libmatroska v1.4.1

Video
ID                                       : 1
Format                                   : AVC
Format/Info                              : Advanced Video Codec
Format profile                           : High@L4.1
Format settings, CABAC                   : Yes
Format settings, ReFrames                : 4 frames
Codec ID                                 : V_MPEG4/ISO/AVC
Duration                                 : 1h 37mn
Bit rate                                 : 14.9 Mbps
Width                                    : 1 920 pixels
Height                                   : 1 080 pixels
Display aspect ratio                     : 16:9
Frame rate mode                          : Constant
Frame rate                               : 23.976 fps
Color space                              : YUV
Chroma subsampling                       : 4:2:0
Bit depth                                : 8 bits
Scan type                                : Progressive
Bits/(Pixel*Frame)                       : 0.300
Stream size                              : 10.1 GiB (89%)
Writing library                          : x264 core 146 r2538 121396c
Encoding settings                        : cabac=1 / ref=4 / deblock=1:0:0 / analyse=0x3:0x133 / me=umh / subme=7 / psy=1 / psy_rd=1.00:0.00 / mixed_ref=1 / me_range=16 / chroma_me=1 / trellis=1 / 8x8dct=1 / cqm=0 / deadzone=21,11 / fast_pskip=0 / chroma_qp_offset=-2 / threads=12 / lookahead_threads=2 / sliced_threads=0 / nr=0 / decimate=1 / interlaced=0 / bluray_compat=0 / constrained_intra=0 / bframes=3 / b_pyramid=2 / b_adapt=1 / b_bias=0 / direct=1 / weightb=1 / open_gop=0 / weightp=1 / keyint=250 / keyint_min=23 / scenecut=40 / intra_refresh=0 / rc_lookahead=40 / rc=crf / mbtree=1 / crf=20.0 / qcomp=0.60 / qpmin=0 / qpmax=69 / qpstep=4 / ip_ratio=1.40 / aq=1:1.00
Default                                  : Yes
Forced                                   : No

Audio #1
ID                                       : 2
Format                                   : DTS
Format/Info                              : Digital Theater Systems
Mode                                     : 16
Format settings, Endianness              : Big
Codec ID                                 : A_DTS
Duration                                 : 1h 37mn
Bit rate mode                            : Constant
Bit rate                                 : 768 Kbps
Channel(s)                               : 6 channels
Channel positions                        : Front: L C R, Side: L R, LFE
Sampling rate                            : 48.0 KHz
Bit depth                                : 16 bits
Compression mode                         : Lossy
Stream size                              : 533 MiB (5%)
Language                                 : German
Default                                  : Yes
Forced                                   : No

Audio #2
ID                                       : 3
Format                                   : DTS
Format/Info                              : Digital Theater Systems
Mode                                     : 16
Format settings, Endianness              : Big
Codec ID                                 : A_DTS
Duration                                 : 1h 37mn
Bit rate mode                            : Constant
Bit rate                                 : 768 Kbps
Channel(s)                               : 6 channels
Channel positions                        : Front: L C R, Side: L R, LFE
Sampling rate                            : 48.0 KHz
Bit depth                                : 16 bits
Compression mode                         : Lossy
Stream size                              : 533 MiB (5%)
Language                                 : English
Default                                  : No
Forced                                   : No

Text
ID                                       : 4
Format                                   : UTF-8
Codec ID                                 : S_TEXT/UTF8
Codec ID/Info                            : UTF-8 Plain Text
Language                                 : German
Default                                  : Yes
Forced                                   : No


Download:
Share Online Share OnlineShare OnlineShare Online
 

Kommentare