Filecrypt zeigt vereinzelt Files als "n/a". Die Downloads sind trotzdem komplett.

DNS SERVER AENDERNum der staatlichen Zensur zu umgehen. Sollten wir von eurem Provider geseprrt werden, nutzt den TOR BROWSER oder ändert euren DNS SERVER.

Filmwünsche können bei uns im Forum abgegeben werden

Wir Speichern Nicht




 
 
 
Top Releases
Operation.Red.Sea.2018.Germa...
Mamma.Mia.Here.We.Go.Again.2...
Mamma.Mia.Here.We.Go.Again.2...
Mamma.Mia.Here.We.Go.Again.2...
Blue.My.Mind.2018.German.720...
Blue.My.Mind.2018.German.108...
The.Equalizer.2.2018.German....
The.Equalizer.2.German.DL.AC...
The.Equalizer.2.German.DL.AC...
Ant-Man.And.The.Wasp.2018.MU...

Cinedubs
Juliet.Naked.2018.GERMAN.DL....
Juliet.Naked.2018.GERMAN.DL....
10x10.2018.German.AC3D.DL.10...
Predator.Upgrade.German.DL.A...
Predator.Upgrade.German.DL.A...
10×10.2018.German.AC3D.DL.1...
10×10.2018.German.AC3D.DL.7...
Sicario.2.German.DL.AC3.Dubb...
Sicario.2.German.DL.AC3.Dubb...
Mission.Impossible.Fallout.2...

Neuerscheinungen 2017-18
1000.Yards.Zwischen.Leben.un...
1000.Yards.Zwischen.Leben.un...
Escape.Plan.2.Hades.2018.Ger...
Escape.Plan.2.Hades.2018.Ger...
Import.Export.2007.German.10...
Die.Unzertrennlichen.1988.Ge...
Der.Falke.und.der.Schneemann...
Mein.Name.ist.Somebody.Germa...
Mein.Name.ist.Somebody.Germa...
The.Fog.Nebel.des.Grauens.19...

XXX
GirlFap.E37.Kendal.Watch.Me....
KimberLeeLive.18.10.22.Drain...
FullOfJOI.18.10.29.Brooklyn....
GapeLand.18.10.31.Lilu.Moon....
JaysPOV.18.10.29.Kiara.Cole....
GingerPatch.18.10.30.Nora.Iv...
InterracialPass.18.10.26.Kyl...
Killergram.18.10.31.Misha.Ma...
JulesJordan.18.10.28.Keisha....
KarupsHA.18.10.29.Kyler.Quin...
GirlsDoPorn.E468.19.Years.Ol...
JulesJordan.18.10.31.Alena.C...
GirlsDoPorn.E470.19.Years.Ol...
InTheCrack.E1465.Makenna.Blu...
DaughterSwap.18.10.30.Chanel...
GiveMePink.18.10.30.Liv.Reva...
GirlsWay.18.10.29.Lyra.Law.E...
GirlsDoPorn.E469.24.Years.Ol...
KimberLeeLive.18.10.26.Caden...
FoxxedUp.18.10.26.Cristi.Ann...

3D
Skyscraper.3D.2018.MULTi.COM...
Ant-Man.And.The.Wasp.3D.2018...
Ant.Man.and.the.Wasp.3D.2018...
Die.Unglaublichen.2.3D.2018....
Die.Unglaublichen.2.2018.3D....
Die.Unglaublichen.2.2018.3D....
Sharknado.6.The.Last.One.3D....
Deep.Kleine.Helden.der.Tiefs...
Deep.3D.2017.MULTI.COMPLETE....
Detective.Dee.und.die.Legend...
Detective.Dee.und.die.Legend...
Skyscraper.3D.German.DL.AC3....
Ant-Man.and.the.Wasp.2018.3D...
Jurassic.World.Das.gefallene...
Jurassic.World.Das.gefallene...

Old_Stuff
Detective.Dee.und.das.Geheim...
Detective.Dee.Und.Der.Fluch....
Ghost.Rider.Spirit.of.Vengea...
Species.IV.Das.Erwachen.2007...
Species.IV.Das.Erwachen.2007...
Hotel.Transsilvanien.2012.Ge...
The.Dead.2010.German.DL.1080...
The.Dead.2.India.2013.German...
Britney.Spears.Live.The.Femm...
Buffy.The.Vampire.Slayer.199...
IMAX.Ride.Around.The.World.2...
Schimanski.-.Duisburg.Ruhror...
Akte.X.S02.German.DTS.DL.108...
How.I.Met.Your.Mother.S02.Ge...
Akte.X.S01.German.DTS.DL.108...

Filme
Remainder.2015.German.AC3D.D...
Devour.Der.schwarze.Pfad.200...
Disturbia.Auch.Killer.haben....
Terminator.2.Tag.der.Abrechn...
Ki.und.Ka.2016.German.1080p....
Import.Export.2007.German.72...
Die.Unzertrennlichen.1988.Ge...
Der.Falke.und.der.Schneemann...
Der.kleine.Daeumling.1958.Ge...
Papst.Franziskus.Ein.Mann.se...
Angst.Das.Camp.des.Schrecken...
Greys.Anatomy.S14.COMPLETE.G...
Young.Sheldon.S01.COMPLETE.G...
Young.Sheldon.S01.COMPLETE.G...
The.Last.Ship.S05.COMPLETE.G...
The.Deuce.S02.GERMAN.DL.720p...
Die.Simpsons.S29.GERMAN.DUBB...
The.Walking.Dead.S08.COMPLET...
Wrecked.S03.GERMAN.DUBBED.72...
Legends.of.Tomorrow.S03.COMP...
Legends.of.Tomorrow.S03.COMP...
The.Walking.Dead.S08.COMPLET...
Cliffhanger.Nur.die.Starken....
Feed.the.Fish.German.DL.2009...

 
 
1000.Yards.Zwischen.Leben.und.Tod.2018.GERMAN.720p.BluRay.x264-UNiVERSUM

Jahr: 2018
Genre: Historienfilm, Kriegsfilme
Sprache: Deutsch DTS
Laufzeit: 1h 27mn
Bitrate: 5 431 Kbps
Format: MKV
Größe: 3.32 GiB
Release:

Beschreibung:

Während des Zweiten Weltkriegs zerschlagen deutsche Streitkräfte die Amerikaner an der Schlacht am Kasserine Pass. Ein einzelner Sergeant, Roland Rothach, wird von seinem Zug in der Wüste Nordafrikas getrennt. Als Gefangener der Deutschen muss er sich seinen schlimmsten Ängsten stellen. Ängste, die ihn auch lange nach Kriegsende immer wieder heimsuchen. Zu Hause kämpft er mit Rückblenden der furchtbaren Erlebnisse, seinen Traumata, der gescheiterten Ehe und der unendlichen Leere, die seine Isolation mit sich bringt.

Das ging deutschen Soldaten, die die allierte Kriegsgefangenschaft überlebten auch nicht anders. Stichwort Rheinwiesen.



Complete name                            : 1000.yards.zwischen.leben.und.tod.2018.german.720p.bluray.x264-universum.mkv
Format                                   : Matroska
Format version                           : Version 4 / Version 2
File size                                : 3.32 GiB
Duration                                 : 1h 27mn
Overall bit rate                         : 5 431 Kbps
Encoded date                             : UTC 2018-11-13 15:30:56
Writing application                      : mkvmerge v7.9.0 ('Birds') 64bit
Writing library                          : libebml v1.3.1 + libmatroska v1.4.2
DURATION                                 : 00:00:34.719000000
NUMBER_OF_FRAMES                         : 9
NUMBER_OF_BYTES                          : 472
_STATISTICS_WRITING_APP                  : mkvmerge v7.9.0 ('Birds') 64bit
_STATISTICS_WRITING_DATE_UTC             : 2018-11-13 15:30:56
_STATISTICS_TAGS                         : BPS DURATION NUMBER_OF_FRAMES NUMBER_OF_BYTES

Video
ID                                       : 1
Format                                   : AVC
Format/Info                              : Advanced Video Codec
Format profile                           : High@L4.1
Format settings, CABAC                   : Yes
Format settings, ReFrames                : 5 frames
Codec ID                                 : V_MPEG4/ISO/AVC
Duration                                 : 1h 27mn
Bit rate                                 : 4 555 Kbps
Width                                    : 1 280 pixels
Height                                   : 720 pixels
Display aspect ratio                     : 16:9
Frame rate mode                          : Constant
Frame rate                               : 25.000 fps
Color space                              : YUV
Chroma subsampling                       : 4:2:0
Bit depth                                : 8 bits
Scan type                                : Progressive
Bits/(Pixel*Frame)                       : 0.198
Stream size                              : 2.78 GiB (84%)
Writing library                          : x264 core 157 r2935 545de2f
Encoding settings                        : cabac=1 / ref=5 / deblock=1:-1:-1 / analyse=0x3:0x133 / me=umh / subme=8 / psy=1 / psy_rd=1.00:0.15 / mixed_ref=1 / me_range=16 / chroma_me=1 / trellis=2 / 8x8dct=1 / cqm=0 / deadzone=21,11 / fast_pskip=0 / chroma_qp_offset=-3 / threads=18 / lookahead_threads=3 / sliced_threads=0 / nr=0 / decimate=1 / interlaced=0 / bluray_compat=0 / constrained_intra=0 / bframes=3 / b_pyramid=2 / b_adapt=1 / b_bias=0 / direct=3 / weightb=1 / open_gop=0 / weightp=2 / keyint=250 / keyint_min=25 / scenecut=40 / intra_refresh=0 / rc_lookahead=40 / rc=crf / mbtree=1 / crf=20.0 / qcomp=0.60 / qpmin=10 / qpmax=69 / qpstep=4 / ip_ratio=1.40 / aq=1:1.00
Default                                  : Yes
Forced                                   : No
DURATION                                 : 01:27:28.400000000
NUMBER_OF_FRAMES                         : 131210
NUMBER_OF_BYTES                          : 3057588024
_STATISTICS_WRITING_APP                  : mkvmerge v7.9.0 ('Birds') 64bit
_STATISTICS_WRITING_DATE_UTC             : 2018-11-13 15:30:56
_STATISTICS_TAGS                         : BPS DURATION NUMBER_OF_FRAMES NUMBER_OF_BYTES

Audio
ID                                       : 2
Format                                   : DTS
Format/Info                              : Digital Theater Systems
Mode                                     : 16
Format settings, Endianness              : Big
Codec ID                                 : A_DTS
Duration                                 : 1h 27mn
Bit rate mode                            : Constant
Bit rate                                 : 768 Kbps
Channel(s)                               : 2 channels
Channel positions                        : Front: L R
Sampling rate                            : 48.0 KHz
Bit depth                                : 24 bits
Compression mode                         : Lossy
Stream size                              : 481 MiB (14%)
Title                                    : dts
Language                                 : German
Default                                  : Yes
Forced                                   : No

Text
ID                                       : 3
Format                                   : UTF-8
Codec ID                                 : S_TEXT/UTF8
Codec ID/Info                            : UTF-8 Plain Text
Title                                    : forced
Language                                 : German
Default                                  : Yes
Forced                                   : No


Download:
Share Online Share OnlineShare OnlineShare Online
 

Kommentare