Filecrypt zeigt vereinzelt Files als "n/a". Die Downloads sind trotzdem komplett.

DNS SERVER AENDERNum der staatlichen Zensur zu umgehen. Sollten wir von eurem Provider geseprrt werden, nutzt den TOR BROWSER oder ändert euren DNS SERVER.

Filmwünsche können bei uns im Forum abgegeben werden

Wir Speichern Nicht




 
 
 
Top Releases
Ant-Man.and.the.Wasp.2018.Ge...
Mamma.Mia.Here.We.Go.Again.2...
Operation.Red.Sea.2018.Germa...
Mamma.Mia.Here.We.Go.Again.2...
Mamma.Mia.Here.We.Go.Again.2...
Mamma.Mia.Here.We.Go.Again.2...
Blue.My.Mind.2018.German.720...
Blue.My.Mind.2018.German.108...
The.Equalizer.2.2018.German....
The.Equalizer.2.German.DL.AC...

Cinedubs
Sicario.2.2018.German.DL.AC3...
Juliet.Naked.2018.GERMAN.DL....
Juliet.Naked.2018.GERMAN.DL....
10x10.2018.German.AC3D.DL.10...
Predator.Upgrade.German.DL.A...
Predator.Upgrade.German.DL.A...
10×10.2018.German.AC3D.DL.1...
10×10.2018.German.AC3D.DL.7...
Sicario.2.German.DL.AC3.Dubb...
Sicario.2.German.DL.AC3.Dubb...

Neuerscheinungen 2017-18
The.Fog.Nebel.des.Grauens.19...
The.Fog.Nebel.des.Grauens.19...
1000.Yards.Zwischen.Leben.un...
1000.Yards.Zwischen.Leben.un...
Escape.Plan.2.Hades.2018.Ger...
Escape.Plan.2.Hades.2018.Ger...
Import.Export.2007.German.10...
Die.Unzertrennlichen.1988.Ge...
Der.Falke.und.der.Schneemann...
Mein.Name.ist.Somebody.Germa...

XXX
GirlFap.E37.Kendal.Watch.Me....
KimberLeeLive.18.10.22.Drain...
FullOfJOI.18.10.29.Brooklyn....
GapeLand.18.10.31.Lilu.Moon....
JaysPOV.18.10.29.Kiara.Cole....
GingerPatch.18.10.30.Nora.Iv...
InterracialPass.18.10.26.Kyl...
Killergram.18.10.31.Misha.Ma...
JulesJordan.18.10.28.Keisha....
KarupsHA.18.10.29.Kyler.Quin...
GirlsDoPorn.E468.19.Years.Ol...
JulesJordan.18.10.31.Alena.C...
GirlsDoPorn.E470.19.Years.Ol...
InTheCrack.E1465.Makenna.Blu...
DaughterSwap.18.10.30.Chanel...
GiveMePink.18.10.30.Liv.Reva...
GirlsWay.18.10.29.Lyra.Law.E...
GirlsDoPorn.E469.24.Years.Ol...
KimberLeeLive.18.10.26.Caden...
FoxxedUp.18.10.26.Cristi.Ann...

3D
Skyscraper.3D.2018.MULTi.COM...
Ant-Man.And.The.Wasp.3D.2018...
Ant.Man.and.the.Wasp.3D.2018...
Die.Unglaublichen.2.3D.2018....
Die.Unglaublichen.2.2018.3D....
Die.Unglaublichen.2.2018.3D....
Sharknado.6.The.Last.One.3D....
Deep.Kleine.Helden.der.Tiefs...
Deep.3D.2017.MULTI.COMPLETE....
Detective.Dee.und.die.Legend...
Detective.Dee.und.die.Legend...
Skyscraper.3D.German.DL.AC3....
Ant-Man.and.the.Wasp.2018.3D...
Jurassic.World.Das.gefallene...
Jurassic.World.Das.gefallene...

Old_Stuff
Detective.Dee.und.das.Geheim...
Detective.Dee.Und.Der.Fluch....
Ghost.Rider.Spirit.of.Vengea...
Species.IV.Das.Erwachen.2007...
Species.IV.Das.Erwachen.2007...
Hotel.Transsilvanien.2012.Ge...
The.Dead.2010.German.DL.1080...
The.Dead.2.India.2013.German...
Britney.Spears.Live.The.Femm...
Buffy.The.Vampire.Slayer.199...
IMAX.Ride.Around.The.World.2...
Schimanski.-.Duisburg.Ruhror...
Akte.X.S02.German.DTS.DL.108...
How.I.Met.Your.Mother.S02.Ge...
Akte.X.S01.German.DTS.DL.108...

Filme
Thor.Tales.of.Asgard.2011.Ge...
Captain.America.REMASTERED.G...
The.Sun.at.Midnight.Eine.aus...
The.Gate.Die.Unterirdischen....
The.Sun.at.Midnight.Eine.aus...
Thunderbirds.Are.Go.1966.Ger...
Ti.Lung.Duell.ohne.Gnade.197...
Der.Spion.und.sein.Bruder.20...
Ticker.2001.German.1080p.HDT...
Ticket.Out.Flucht.ins.Ungewi...
Tiger.and.Dragon.2000.German...
Taxi.5.2018.German.DL.1080p....
Adventures.in.Babysitting.Di...
Remainder.2015.German.AC3D.D...
Devour.Der.schwarze.Pfad.200...
Disturbia.Auch.Killer.haben....
Terminator.2.Tag.der.Abrechn...
Ki.und.Ka.2016.German.1080p....
Import.Export.2007.German.72...
Die.Unzertrennlichen.1988.Ge...
Der.Falke.und.der.Schneemann...
Der.kleine.Daeumling.1958.Ge...
Papst.Franziskus.Ein.Mann.se...
Angst.Das.Camp.des.Schrecken...

 
 
Import.Export.2007.German.1080p.BluRay.x264-DOUCEMENT

Jahr: 2007
Genre: Drama, Erotik
Sprache: Deutsch DTS
Laufzeit: 2h 21mn
Bitrate: 8 855 Kbps
Format: MKV
Größe: 8.75 GiB
Release:

Beschreibung:
Zwei komplementäre Geschichten ergänzen sich in „Import Export“: Die in der Ukraine lebende Krankenschwester Olga (Eykataryna Rak) wohnt mit ihrer Mutter (Lidiya Oleksandrivna Savka) und ihrem Kind in einer beengten Wohnung. Da ihre Arbeit nicht genug Geld zum Leben abwirft, versucht sie, kurze Zeit als Darstellerin für eine Live-Internetpornoseite etwas dazu zu verdienen. Als sie mit Hilfe einer Freundin (Natalia Epureanu) die Möglichkeit bekommt, nach Österreich zu gehen, lässt sie ihr Kind und ihre Mutter in der Heimat zurück. In Wien angekommen, kommt sie zunächst als Frau für alles in der Villa einer reichen Familie unter. Demütigungen sind dort jedoch an der Tagesordnung. Zeitgleich wandert der arbeitslose Österreicher Pauli (Paul Hofmann) in die Ukraine aus, um dort eine neue Existenz zu gründen. Doch auch für ihn sollen sich jenseits der Heimat Abgründe auftun.


Complete name                            : import.export.2007.german.1080p.bluray.x264-doucement.mkv
Format                                   : Matroska
Format version                           : Version 4 / Version 2
File size                                : 8.75 GiB
Duration                                 : 2h 21mn
Overall bit rate                         : 8 855 Kbps
Encoded date                             : UTC 2018-11-14 09:50:56
Writing application                      : mkvmerge v8.3.0 ('Over the Horizon') 64bit
Writing library                          : libebml v1.3.1 + libmatroska v1.4.2
DURATION                                 : 02:08:45.684000000
NUMBER_OF_FRAMES                         : 332
NUMBER_OF_BYTES                          : 9746
_STATISTICS_WRITING_APP                  : mkvmerge v8.3.0 ('Over the Horizon') 64bit
_STATISTICS_WRITING_DATE_UTC             : 2018-11-14 09:50:56
_STATISTICS_TAGS                         : BPS DURATION NUMBER_OF_FRAMES NUMBER_OF_BYTES

Video
ID                                       : 1
Format                                   : AVC
Format/Info                              : Advanced Video Codec
Format profile                           : High@L4.1
Format settings, CABAC                   : Yes
Format settings, ReFrames                : 4 frames
Codec ID                                 : V_MPEG4/ISO/AVC
Duration                                 : 2h 21mn
Bit rate                                 : 7 345 Kbps
Width                                    : 1 920 pixels
Height                                   : 1 072 pixels
Display aspect ratio                     : 16:9
Frame rate mode                          : Constant
Frame rate                               : 23.976 fps
Color space                              : YUV
Chroma subsampling                       : 4:2:0
Bit depth                                : 8 bits
Scan type                                : Progressive
Bits/(Pixel*Frame)                       : 0.149
Stream size                              : 7.08 GiB (81%)
Writing library                          : x264 core 155 r2901 7d0ff22
Encoding settings                        : cabac=1 / ref=4 / deblock=1:-1:-1 / analyse=0x3:0x133 / me=umh / subme=7 / psy=1 / psy_rd=1.00:0.15 / mixed_ref=1 / me_range=16 / chroma_me=1 / trellis=2 / 8x8dct=1 / cqm=0 / deadzone=21,11 / fast_pskip=0 / chroma_qp_offset=-3 / threads=24 / lookahead_threads=4 / sliced_threads=0 / nr=0 / decimate=1 / interlaced=0 / bluray_compat=0 / constrained_intra=0 / bframes=3 / b_pyramid=2 / b_adapt=1 / b_bias=0 / direct=3 / weightb=1 / open_gop=0 / weightp=2 / keyint=250 / keyint_min=23 / scenecut=40 / intra_refresh=0 / rc_lookahead=50 / rc=2pass / mbtree=1 / bitrate=7345 / ratetol=1.0 / qcomp=0.60 / qpmin=0 / qpmax=69 / qpstep=4 / cplxblur=20.0 / qblur=0.5 / ip_ratio=1.40 / aq=1:1.00
Language                                 : English
Default                                  : Yes
Forced                                   : No
DURATION                                 : 02:21:24.435000000
NUMBER_OF_FRAMES                         : 203423
NUMBER_OF_BYTES                          : 7788702563
_STATISTICS_WRITING_APP                  : mkvmerge v8.3.0 ('Over the Horizon') 64bit
_STATISTICS_WRITING_DATE_UTC             : 2018-11-14 09:50:56
_STATISTICS_TAGS                         : BPS DURATION NUMBER_OF_FRAMES NUMBER_OF_BYTES

Audio
ID                                       : 2
Format                                   : DTS
Format/Info                              : Digital Theater Systems
Mode                                     : 16
Format settings, Endianness              : Big
Codec ID                                 : A_DTS
Duration                                 : 2h 21mn
Bit rate mode                            : Constant
Bit rate                                 : 1 509 Kbps
Channel(s)                               : 6 channels
Channel positions                        : Front: L C R, Side: L R, LFE
Sampling rate                            : 48.0 KHz
Bit depth                                : 24 bits
Compression mode                         : Lossy
Stream size                              : 1.49 GiB (17%)
Language                                 : German
Default                                  : Yes
Forced                                   : No

Text
ID                                       : 3
Format                                   : UTF-8
Codec ID                                 : S_TEXT/UTF8
Codec ID/Info                            : UTF-8 Plain Text
Title                                    : German forced
Language                                 : German
Default                                  : Yes
Forced                                   : Yes


Download:
Share Online Share OnlineShare OnlineShare Online
 

Kommentare