Filecrypt zeigt vereinzelt Files als "n/a". Die Downloads sind trotzdem komplett.

DNS SERVER AENDERNum der staatlichen Zensur zu umgehen. Sollten wir von eurem Provider geseprrt werden, nutzt den TOR BROWSER oder ändert euren DNS SERVER.

Filmwünsche können bei uns im Forum abgegeben werden

Wir Speichern Nicht




 
 
 
Top Releases
Meg.2018.German.Dubbed.RETAi...
Meg.2018.German.Dubbed.RETAi...
Die.Unglaublichen.2.2018.Ger...
Logan.Noir.Edition.2017.MULT...
Hotel.Artemis.2018.German.AC...
Ant-Man.2015.German.AC3.DL.1...
In.den.Gaengen.2018.German.A...
Oceans.8.2018.MULTi.COMPLETE...
Outlaw.King.2018.German.DL.1...
Outlaw.King.2018.German.DL.7...

Cinedubs
Predator.Upgrade.German.DL.A...
Predator.Upgrade.German.DL.A...
10×10.2018.German.AC3D.DL.1...
10×10.2018.German.AC3D.DL.7...
Sicario.2.German.DL.AC3.Dubb...
Sicario.2.German.DL.AC3.Dubb...
Hotel.Artemis.German.DL.AC3....
Hotel.Artemis.German.DL.AC3....
Mission.Impossible.Fallout.2...
Mission.Impossible.Fallout.2...

Neuerscheinungen 2017-18
Der.Falke.und.der.Schneemann...
Gate.Die.Unterirdischen.1987...
Hostile.2017.DUAL.COMPLETE.B...
Stoppt.die.Todesfahrt.der.U-...
Zorro.1975.MULTi.COMPLETE.BL...
Meg.The.Meg.2018.COMPLETE.UH...
Skin.Creepers.2018.GERMAN.CO...
Skin.Creepers.2018.German.72...
Skin.Creepers.2018.German.10...
Ballad.in.Blood.2016.German....

XXX
Fetish.Fantasies.2015.XXX.72...
Fetish.Fantasies.2015.XXX.10...
Dress.For.Dinner.3.XXX.720p....
Dress.For.Dinner.3.XXX.1080p...
BustyArianna.18.09.09.First....
DDFNetworkVR.18.10.31.Lena.R...
DateSlam.18.10.29.Jureka.Tat...
ATKGirlfriends.18.10.31.Rosa...
Cosmid.18.10.31.Ashley.Burke...
Creampie-Angels.18.10.31.Fel...
Cosmid.18.10.28.Albina.Evans...
CzechCasting.18.10.30.Lucka....
CastingCouch-HD.18.10.26.Shy...
ClubSeventeen.18.10.30.Aurel...
CuckoldSessions.18.10.28.Man...
Cum4K.18.10.30.Harmony.Wonde...
DaneJones.18.10.30.Anya.Krey...
CherryPimps.18.10.29.Isabell...
CastingCouch-HD.18.10.19.Mil...
CzechStreets.E115.Veronika.X...

3D
Ant-Man.And.The.Wasp.3D.2018...
Ant.Man.and.the.Wasp.3D.2018...
Die.Unglaublichen.2.3D.2018....
Die.Unglaublichen.2.2018.3D....
Die.Unglaublichen.2.2018.3D....
Sharknado.6.The.Last.One.3D....
Deep.Kleine.Helden.der.Tiefs...
Deep.3D.2017.MULTI.COMPLETE....
Detective.Dee.und.die.Legend...
Detective.Dee.und.die.Legend...
Skyscraper.3D.German.DL.AC3....
Ant-Man.and.the.Wasp.2018.3D...
Jurassic.World.Das.gefallene...
Jurassic.World.Das.gefallene...
Best.of.3D.vol.10.-.12.GERMA...

Old_Stuff
Detective.Dee.und.das.Geheim...
Detective.Dee.Und.Der.Fluch....
Ghost.Rider.Spirit.of.Vengea...
Species.IV.Das.Erwachen.2007...
Species.IV.Das.Erwachen.2007...
Hotel.Transsilvanien.2012.Ge...
The.Dead.2010.German.DL.1080...
The.Dead.2.India.2013.German...
Britney.Spears.Live.The.Femm...
Buffy.The.Vampire.Slayer.199...
IMAX.Ride.Around.The.World.2...
Schimanski.-.Duisburg.Ruhror...
Akte.X.S02.German.DTS.DL.108...
How.I.Met.Your.Mother.S02.Ge...
Akte.X.S01.German.DTS.DL.108...

Filme
Evidence.Ueberlebst.du.die.N...
Evil.2.2009.German.DL.1080p....
Evil.Aliens.2005.German.DL.1...
Evil.Angel.Engel.des.Satans....
Evil.Born.2012.German.DL.108...
Quartett.2012.German.DL.1080...
Super.Tanker.2012.2011.Germa...
Skin.Creepers.2018.German.DT...
Skin.Creepers.2018.German.DT...
Cut.Shoot.Kill.2017.German.D...
Cold.Blooded.1995.UNCUT.Germ...
Rambo.First.Blood.1982.Germa...
Rambo.First.Blood.1982.Remas...
Girl.6.1996.German.AC3D.DL.7...
Nur.nicht.Millionaer.sein.19...
Nur.nicht.Millionaer.sein.19...
Der.phantastische.Planet.197...
Shakespeare.in.Love.German.1...
Rambo.First.Blood.1982.Germa...
Rhea.M.Es.begann.ohne.Warnun...
Wen.die.Geister.lieben.Ghost...
Men.in.Black.I-III.1997-2012...
Rambo.2.Der.Auftrag.1985.Ger...
Das.Ding.aus.einer.anderen.W...

 
 
Meg.2018.German.Dubbed.RETAiL.AC3.DL.720p.BluRay.x264-BluRHD

Jahr: 2018
Genre: Action, Horror
Sprache: Deutsch AC3 | Englisch DTS
Laufzeit: 1h 53mn
Bitrate: 5 464 Kbps
Format: MKV
Größe: 4.32 GiB
Release:

Beschreibung:

In dem Film ‘Meg’ wird ein Tiefsee-Unterwasserfahrzeug, das Teil eines internationalen Meeresbeobachtungsprogrammes ist, von einer riesigen, ausgestorben geglaubten Kreatur angegriffen. Nun liegt das Boot manövrierunfähig im tiefsten Graben des Pazifik und die Crew ist darin gefangen. Als ihm die Zeit davonzulaufen droht, engagiert ein visionärer chinesischer Meeresforscher (Winston Chao) gegen den Willen seiner Tochter Suyin (Li Bingbing) den Taucher Jonas Taylor (Jason Statham), der Experte für Rettungsaktionen in der Tiefsee ist. Er soll die Crew – und das Meer selbst – vor einer unaufhaltsamen Bedrohung retten: einem prähistorischen, über 20 Meter grossen Hai, einem ‘Megalodon’. Was niemand ahnt: Jahre zuvor war Taylor schon einmal dieser furchterregenden Kreatur begegnet. Jetzt, zusammen mit Suyin, will er sich seinen Ängsten stellen und sein Leben riskieren, um die eingeschlossenen Menschen zu retten, und muss dabei noch einmal dem größten und schrecklichsten Raubtier aller Zeiten gegenübertreten.

 

 



Complete name                            : bhd-gem-720p.mkv
Format                                   : Matroska
Format version                           : Version 2
File size                                : 4.32 GiB
Duration                                 : 1h 53mn
Overall bit rate                         : 5 464 Kbps
Encoded date                             : UTC 2018-11-11 07:36:18
Writing application                      : mkvmerge v4.5.0 ('Speed of Light') gebaut am Feb  1 2011 02:10:32
Writing library                          : libebml v1.2.0 + libmatroska v1.1.0

Video
ID                                       : 1
Format                                   : AVC
Format/Info                              : Advanced Video Codec
Format profile                           : High@L4.1
Format settings, CABAC                   : Yes
Format settings, ReFrames                : 4 frames
Codec ID                                 : V_MPEG4/ISO/AVC
Duration                                 : 1h 53mn
Bit rate                                 : 3 398 Kbps
Width                                    : 1 280 pixels
Height                                   : 536 pixels
Display aspect ratio                     : 2.40:1
Frame rate mode                          : Constant
Frame rate                               : 23.976 fps
Color space                              : YUV
Chroma subsampling                       : 4:2:0
Bit depth                                : 8 bits
Scan type                                : Progressive
Bits/(Pixel*Frame)                       : 0.207
Stream size                              : 2.69 GiB (62%)
Writing library                          : x264 core 157 r2935 545de2f
Encoding settings                        : cabac=1 / ref=5 / deblock=1:-1:-1 / analyse=0x3:0x113 / me=hex / subme=8 / psy=1 / psy_rd=1.00:0.15 / mixed_ref=1 / me_range=16 / chroma_me=1 / trellis=2 / 8x8dct=1 / cqm=0 / deadzone=21,11 / fast_pskip=1 / chroma_qp_offset=-3 / threads=17 / lookahead_threads=2 / sliced_threads=0 / nr=0 / decimate=1 / interlaced=0 / bluray_compat=0 / constrained_intra=0 / bframes=3 / b_pyramid=1 / b_adapt=2 / b_bias=0 / direct=3 / weightb=1 / open_gop=0 / weightp=2 / keyint=240 / keyint_min=23 / scenecut=40 / intra_refresh=0 / rc_lookahead=50 / rc=crf / mbtree=1 / crf=18.0 / qcomp=0.60 / qpmin=0 / qpmax=69 / qpstep=4 / ip_ratio=1.40 / aq=1:1.00
Default                                  : Yes
Forced                                   : No

Audio #1
ID                                       : 2
Format                                   : AC-3
Format/Info                              : Audio Coding 3
Mode extension                           : CM (complete main)
Format settings, Endianness              : Big
Codec ID                                 : A_AC3
Duration                                 : 1h 53mn
Bit rate mode                            : Constant
Bit rate                                 : 448 Kbps
Channel(s)                               : 6 channels
Channel positions                        : Front: L C R, Side: L R, LFE
Sampling rate                            : 48.0 KHz
Bit depth                                : 16 bits
Compression mode                         : Lossy
Stream size                              : 363 MiB (8%)
Title                                    : German
Language                                 : German
Default                                  : Yes
Forced                                   : No

Audio #2
ID                                       : 3
Format                                   : DTS
Format/Info                              : Digital Theater Systems
Mode                                     : 16
Format settings, Endianness              : Big
Codec ID                                 : A_DTS
Duration                                 : 1h 53mn
Bit rate mode                            : Constant
Bit rate                                 : 1 509 Kbps
Channel(s)                               : 6 channels
Channel positions                        : Front: L C R, Side: L R, LFE
Sampling rate                            : 48.0 KHz
Bit depth                                : 16 bits
Compression mode                         : Lossy
Delay relative to video                  : 66ms
Stream size                              : 1.19 GiB (28%)
Title                                    : English
Language                                 : English
Default                                  : No
Forced                                   : No

Text #1
ID                                       : 4
Format                                   : VobSub
Muxing mode                              : zlib
Codec ID                                 : S_VOBSUB
Codec ID/Info                            : The same subtitle format used on DVDs
Title                                    : German forced
Language                                 : German
Default                                  : Yes
Forced                                   : Yes

Text #2
ID                                       : 5
Format                                   : VobSub
Muxing mode                              : zlib
Codec ID                                 : S_VOBSUB
Codec ID/Info                            : The same subtitle format used on DVDs
Title                                    : German full
Language                                 : German
Default                                  : No
Forced                                   : No

Text #3
ID                                       : 6
Format                                   : VobSub
Muxing mode                              : zlib
Codec ID                                 : S_VOBSUB
Codec ID/Info                            : The same subtitle format used on DVDs
Title                                    : English full
Language                                 : German
Default                                  : No
Forced                                   : No


Download:
Share Online Share OnlineShare OnlineShare Online
 

Kommentare