Filecrypt zeigt vereinzelt Files als "n/a". Die Downloads sind trotzdem komplett.

DNS SERVER AENDERNum der staatlichen Zensur zu umgehen. Sollten wir von eurem Provider geseprrt werden, nutzt den TOR BROWSER oder ändert euren DNS SERVER.

Filmwünsche können bei uns im Forum abgegeben werden

Wir Speichern Nicht




 
 
 
Top Releases
Paterson.2016.German.AC3.108...
Lion.Der.lange.Weg.nach.Haus...
Luis.und.die.Aliens.German.D...
Luis.und.die.Aliens.German.D...
Der.Butler.2013.German.AC3.D...
Ploetzlich.Santa.2016.German...
The.Art.of.the.Steal.Der.Kun...
Luis.und.die.Aliens.2018.DUA...
Prinz.Charming.2018.COMPLETE...
Santa.und.Co.Wer.rettet.Weih...

Cinedubs
Christopher.Robin.2018.GERMA...
Christopher.Robin.2018.GERMA...
Die.unglaubliche.Reise.des.F...
Die.unglaubliche.Reise.des.F...
BlacKkKlansman.2018.GERMAN.D...
BlacKkKlansman.2018.GERMAN.D...
Mile.22.2018.German.AC3MD.DL...
Mile.22.2018.German.AC3MD.DL...
Die.Unglaublichen.2.German.D...
Die.Unglaublichen.2.German.D...

Neuerscheinungen 2017-18
The.Darkest.Minds.Die.Ueberl...
Beyond.Re-Animator.GERMAN.20...
The.Warriors.1979.MULTi.COMP...
Jefe.Der.Chef.2018.German.72...
Jefe.Der.Chef.2018.German.10...
Been.So.Long.2018.German.DL....
Been.So.Long.2018.German.DL....
Killer.Expendables.2010.Germ...
LEGO.DC.Super.Heroes.Aquaman...
LEGO.DC.Super.Heroes.Aquaman...

XXX
From.Teen.Ass.To.Teen.Mouth....
GirlsGoneWild.18.10.09.Rider...
GrandpasFuckTeens.18.10.16.S...
LANewGirl.18.08.18.Madison.S...
Gagged.Men.Tell.No.Tales.XXX...
LANewGirl.18.08.19.Madison.S...
From.Teen.Ass.To.Teen.Mouth....
GotMylf.18.10.18.Sheena.Ryde...
GirlFap.E04.Courtney.Loxx.Fi...
GirlsWay.18.10.14.Aidra.Fox....
GloryHoleSecrets.18.10.17.Ba...
LANewGirl.18.08.12.Jessa.Sho...
GingerPatch.18.10.16.Scarlet...
ATKHairy.18.10.13.Tali.Dova....
EvilAngel.Kianna.Dior.Busty....
GirlFap.E01.Gia.Violating.My...
GapeLand.18.10.16.Evelina.Da...
GirlsOutWest.18.10.16.Freya....
LANewGirl.18.08.05.Ariel.Ret...
LANewGirl.18.07.31.Ariel.Ret...

3D
Deep.Kleine.Helden.der.Tiefs...
Deep.3D.2017.MULTI.COMPLETE....
Detective.Dee.und.die.Legend...
Detective.Dee.und.die.Legend...
Skyscraper.3D.German.DL.AC3....
Ant-Man.and.the.Wasp.2018.3D...
Jurassic.World.Das.gefallene...
Jurassic.World.Das.gefallene...
Best.of.3D.vol.10.-.12.GERMA...
Die.Biene.Maja.2.Die.Honigsp...
Sharknado.6.The.Last.One.3D....
Solo.A.Star.Wars.Story.3D.20...
Solo.A.Star.Wars.Story.3D.20...
Die.Biene.Maja.2.Die.Honigsp...
Avengers.Infinity.War.3D.201...

Old_Stuff
Species.IV.Das.Erwachen.2007...
Species.IV.Das.Erwachen.2007...
Hotel.Transsilvanien.2012.Ge...
The.Dead.2010.German.DL.1080...
The.Dead.2.India.2013.German...
Britney.Spears.Live.The.Femm...
Buffy.The.Vampire.Slayer.199...
IMAX.Ride.Around.The.World.2...
Schimanski.-.Duisburg.Ruhror...
Akte.X.S02.German.DTS.DL.108...
How.I.Met.Your.Mother.S02.Ge...
Akte.X.S01.German.DTS.DL.108...
Den.Himmel.gibts.echt.DL.108...
Vikings.S02.German.DL.1080p....
Be.Kind.Rewind.Abgedreht.200...

Filme
The.Walking.Dead.S09.UNCUT.G...
The.Walking.Dead.S09.UNCUT.G...
Zombie.Dawn.of.the.Dead.Euro...
Zombie.Dawn.Of.The.Dead.Arge...
Stretch.2014.German.DL.1080p...
Amistad.Das.Sklavenschiff.19...
Englisch.fuer.Anfaenger.2012...
Enemies.Closer.2013.German.D...
Engel.und.Narren.1991.German...
Humans.S03.GERMAN.DL.720p.HD...
Babylon.Berlin.S02.COMPLETE....
Babylon.Berlin.S02.COMPLETE....
Bruchreif.2009.German.DTS.DL...
Der.Bomber.2011.GERMAN.DL.DT...
Camorra.Vendetta.2007.German...
The.Marine.3.Homefront.2013....
The.Manson.Family.Uncut.2003...
The.Mangler.GERMAN.1995.DL.1...
Behind.Your.Eyes.2011.German...
Torpedo.los.1958.German.AC3D...
Beyond.Re-Animator.GERMAN.20...
League.of.Gods.2016.German.D...
Christine.1983.DTSHD.DL.1080...
Race.Rebellen.Piloten.Kriege...

 
 
The.Walking.Dead.S09.UNCUT.German.DD51.Dubbed.DL.720p.AmazonHD.h264-GDR

Jahr: 2018
Genre: Drama | Horror | Sci-Fi
Sprache: Deutsch AC3 | Englisch AC3
Laufzeit: 55min je Folge
Bitrate: 4000 Kbps
Format: MKV
Größe: 1,9 GB je Folge
Release:

Beschreibung:

 Die US-Serie "The Walking Dead" ist eine Adaption der gleichnamigen Comicbuchreihe von Robert Kirkman. Darin geht es um eine Gruppe von Menschen, die nach der Apokalypse als letzte Überlebende in einer Welt bestehen muss, die von Zombies bevölkert wird. Im Mittelpunkt der Serie steht der Polizist Rick Grimes, der für sich und seine Mitstreiter eine sichere Zuflucht sucht.

 

enthaltene Folgen:

The.Walking.Dead.S09E01.Ein.neuer.Anfang.UNCUT.German.DD51.Dubbed.DL.720p.AmazonHD.h264-GDR

The.Walking.Dead.S09E02.Die.Bruecke.UNCUT.German.DD51.Dubbed.DL.720p.AmazonHD.h264-GDR

The.Walking.Dead.S09E03.Keine.Ausnahmen.UNCUT.German.DD51.Dubbed.DL.720p.AmazonHD.h264-GDR

The.Walking.Dead.S09E04.Hungerstreik.UNCUT.German.DD51.Dubbed.DL.720p.AmazonHD.h264-GDR



General
Complete name                            : The.Walking.Dead.S09E01.Ein.neuer.Anfang.UNCUT.German.DD51.Dubbed.DL.720p.AmazonHD.h264-GDR.mkv
Format                                   : Matroska
Format version                           : Version 4 / Version 2
File size                                : 1.92 GiB
Duration                                 : 56mn 10s
Overall bit rate                         : 4 883 Kbps
Movie name                               : GDR Released for Serienjunkies.org
Encoded date                             : UTC 2018-10-08 20:24:57
Writing application                      : mkvmerge v23.0.0 ('The Bride Said No') 64-bit
Writing library                          : libebml v1.3.6 + libmatroska v1.4.9
DURATION                                 : 00:56:10.336000000
NUMBER_OF_FRAMES                         : 105323
NUMBER_OF_BYTES                          : 161776128
_STATISTICS_WRITING_APP                  : mkvmerge v23.0.0 ('The Bride Said No') 64-bit
_STATISTICS_WRITING_DATE_UTC             : 2018-10-08 20:24:57
_STATISTICS_TAGS                         : BPS DURATION NUMBER_OF_FRAMES NUMBER_OF_BYTES

Video
ID                                       : 1
Format                                   : AVC
Format/Info                              : Advanced Video Codec
Format profile                           : High@L3.1
Format settings, CABAC                   : Yes
Format settings, ReFrames                : 5 frames
Codec ID                                 : V_MPEG4/ISO/AVC
Duration                                 : 56mn 10s
Bit rate                                 : 4 018 Kbps
Width                                    : 1 280 pixels
Height                                   : 720 pixels
Display aspect ratio                     : 16:9
Frame rate mode                          : Constant
Frame rate                               : 25.000 fps
Color space                              : YUV
Chroma subsampling                       : 4:2:0
Bit depth                                : 8 bits
Scan type                                : Progressive
Bits/(Pixel*Frame)                       : 0.174
Stream size                              : 1.58 GiB (82%)
Language                                 : German
Default                                  : Yes
Forced                                   : No
Color primaries                          : BT.709
Transfer characteristics                 : BT.709
Matrix coefficients                      : BT.709

Audio #1
ID                                       : 2
Format                                   : AC-3
Format/Info                              : Audio Coding 3
Mode extension                           : CM (complete main)
Format settings, Endianness              : Big
Codec ID                                 : A_AC3
Duration                                 : 56mn 10s
Bit rate mode                            : Constant
Bit rate                                 : 384 Kbps
Channel(s)                               : 6 channels
Channel positions                        : Front: L C R, Side: L R, LFE
Sampling rate                            : 48.0 KHz
Bit depth                                : 16 bits
Compression mode                         : Lossy
Stream size                              : 154 MiB (8%)
Language                                 : German
Default                                  : Yes
Forced                                   : No

Audio #2
ID                                       : 3
Format                                   : AC-3
Format/Info                              : Audio Coding 3
Mode extension                           : CM (complete main)
Format settings, Endianness              : Big
Codec ID                                 : A_AC3
Duration                                 : 56mn 10s
Bit rate mode                            : Constant
Bit rate                                 : 384 Kbps
Channel(s)                               : 6 channels
Channel positions                        : Front: L C R, Side: L R, LFE
Sampling rate                            : 48.0 KHz
Bit depth                                : 16 bits
Compression mode                         : Lossy
Stream size                              : 154 MiB (8%)
Language                                 : English
Default                                  : No
Forced                                   : No



Download:
Share-Online.biz Share-Online.bizShare-Online.bizShare-Online.biz | Rapidgator.net Rapidgator.netRapidgator.netRapidgator.net
 

Kommentare