Magnum P.I. | C’est quoi cette famille?! – Film complet (FR) 14 octobre 2018 | Crónicas vampíricas – 8×12
 


 

Filecrypt zeigt vereinzelt Files als "n/a". Die Downloads sind trotzdem komplett.

DNS SERVER AENDERNum der staatlichen Zensur zu umgehen. Sollten wir von eurem Provider geseprrt werden, nutzt den TOR BROWSER oder ändert euren DNS SERVER.

Filmwünsche können bei uns im Forum abgegeben werden

Wir Speichern Nicht




 
 
 
Top Releases
Batman.The.Killing.Joke.2016...
Moonlight.2016.German.DL.DTS...
Love.Simon.2018.German.DTS.D...
Love.Simon.2018.German.DTS.D...
The.Night.Comes.for.Us.2018....
The.Night.Comes.for.Us.2018....
Cartel.Land.2015.German.DTSH...
Assassination.2015.German.DT...
The.Discovery.2017.German.AC...
Errementari.Der.Schmied.und....

Cinedubs
Bad.Spies.2018.German.AC3MD....
Bad.Spies.2018.German.AC3MD....
MEG.Biss.bald.2018.German.AC...
Slender.Man.2018.GERMAN.DL.A...
Slender.Man.2018.GERMAN.DL.A...
MEG.Biss.bald.2018.German.AC...
MEG.Biss.bald.2018.German.AC...
Searching.2018.German.AC3MD....
Searching.2018.German.AC3MD....
211.Cops.Under.Fire.2018.Ger...

Neuerscheinungen 2017-18
Point.Break.2015.German.DL.D...
Der.Himmel.ueber.Berlin.1987...
Tales.from.the.Hood.2.2018.G...
Tales.from.the.Hood.2.2018.G...
Tau.2018.German.AC3.DL.1080p...
Ploetzlich.Santa.2016.GERMAN...
Ploetzlich.Santa.2016.GERMAN...
Ploetzlich.Santa.2016.GERMAN...
Taxi.5.2018.GERMAN.AC3.1080p...
Taxi.5.2018.GERMAN.AC3.720p....

XXX
EverythingButt.18.10.05.Lise...
Spizoo.18.10.05.Christy.Love...
BurningAngel.18.10.02.Larkin...
KarupsHA.18.10.01.Scarlett.J...
Seduced.By.My.Secretary.XXX....
HotLegsAndFeet.18.10.02.Inna...
Milfty.18.10.05.Prestyn.Lee....
KarupsHA.18.10.04.Scarlett.J...
PornMegaLoad.18.10.04.Andrea...
VivThomas.18.10.05.Luna.Cora...
Foute.Meiden.Time.For.A.Full...
WankItNow.17.11.15.Sophia.Sm...
Mylfed.18.09.30.Kenzie.Taylo...
PixAndVideo.18.10.01.Lexy.Go...
SimplyAnal.18.10.04.Kerry.Ch...
MistressT.18.02.24.Just.Fuck...
TheLifeErotic.18.10.02.Bree....
MistressT.17.12.15.Goddess.P...
SweetSinner.18.10.02.Karlee....
TheUpperFloor.18.10.05.Aiden...

3D
Detective.Dee.und.die.Legend...
Detective.Dee.und.die.Legend...
Skyscraper.3D.German.DL.AC3....
Ant-Man.and.the.Wasp.2018.3D...
Jurassic.World.Das.gefallene...
Jurassic.World.Das.gefallene...
Best.of.3D.vol.10.-.12.GERMA...
Die.Biene.Maja.2.Die.Honigsp...
Sharknado.6.The.Last.One.3D....
Solo.A.Star.Wars.Story.3D.20...
Solo.A.Star.Wars.Story.3D.20...
Die.Biene.Maja.2.Die.Honigsp...
Avengers.Infinity.War.3D.201...
Avengers.Infinity.War.3D.201...
Rampage.Big.Meets.Bigger.3D....

Old_Stuff
Species.IV.Das.Erwachen.2007...
Species.IV.Das.Erwachen.2007...
Hotel.Transsilvanien.2012.Ge...
The.Dead.2010.German.DL.1080...
The.Dead.2.India.2013.German...
Britney.Spears.Live.The.Femm...
Buffy.The.Vampire.Slayer.199...
IMAX.Ride.Around.The.World.2...
Schimanski.-.Duisburg.Ruhror...
Akte.X.S02.German.DTS.DL.108...
How.I.Met.Your.Mother.S02.Ge...
Akte.X.S01.German.DTS.DL.108...
Den.Himmel.gibts.echt.DL.108...
Vikings.S02.German.DL.1080p....
Be.Kind.Rewind.Abgedreht.200...

Filme
Wolfsnaechte.2018.German.DL....
Der.Himmel.ueber.Berlin.1987...
The.Purge.S01.German.DD+51.D...
The.Purge.S01.German.DD+51.D...
Snowfall.S02.COMPLETE.GERMAN...
Marvels.Daredevil.S03.COMPLE...
Marvels.Daredevil.S03.COMPLE...
Snowfall.S02.COMPLETE.German...
Krypton.S01.GERMAN.DUBBED.72...
Michelangelo.Inferno.und.Eks...
Ein.Sommer.in.der.Provence.G...
Ein.Sommer.in.New.Jersey.200...
Ein.Tag.Blau.2008.German.DL....
Ein.Tag.in.Middleton.2013.Ge...
Ein.schoenes.Maedchen.wie.ic...
Krypton.S01.German.DD51.Dubb...
Female.Justice.aka.Blonde.Ra...
The.Outpost.S01.GERMAN.720p....
iZombie.S04.German.DD51.Dubb...
iZombie.S04.German.DD51.Dubb...
Humans.S03.German.DD20.Dubbe...
Ein.Sommer.in.New.York.Germa...
The.First.Purge.2018.German....
The.First.Purge.2018.German....

 
 
Abschussfahrt.2015.German.AC3.1080p.BluRay.x265-FuN

Jahr: 2015
Genre: Komödie
Sprache: Deutsch AC3
Laufzeit: 1h 32mn
Bitrate: 2 660 Kbps
Format: MKV
Größe: 1.72 GiB
Release:

Beschreibung:

Eine Klassenfahrt ist für die meisten Schüler ein großer Spaß und auch die drei Jahrgangs-Außenseiter Max, Berny und Paul wollen dabei richtig einen drauf machen. Wird es den Dreien gelingen, endlich mal ein Abenteuer zu erleben, endlich mal Sex zu haben? Oder endet der Trip wieder wie so viele Abende, alleine auf dem Zimmer? Das Ziel ist Prag – und dort angekommen legen sich die in den Augen ihrer Mitschüler uncoolen Jungs dann auch voll ins Zeug. Potential für allerhand postpubertäres Chaos ist reichlich vorhanden: Paul etwa steht auf Julie, die Schwester des ebenfalls mitgereisten Nerds Magnus Doch Julie interessiert sich nur für Jonas . Und sie ist eher wenig begeistert, als sie herausfindet, dass Max, Berny und Paul ihren Bruder betrunken gemacht haben und er im weiteren Verlauf des turbulenten Abends in Gefangenschaft von Drogendealern geraten ist...



Complete name                            : Abschussfahrt.x265.mkv
Format                                   : Matroska
Format version                           : Version 4 / Version 2
File size                                : 1.72 GiB
Duration                                 : 1h 32mn
Overall bit rate                         : 2 660 Kbps
Movie name                               : Abschussfahrt.2015.German.DTS-HD.1080p.BluRay.AVC.REMUX-CiNEDOME
Encoded date                             : UTC 2018-10-14 19:17:10
Writing application                      : mkvmerge v20.0.0 ('I Am The Sun') 64-bit
Writing library                          : libebml v1.3.5 + libmatroska v1.4.8
Attachements                             : Cover.jpg

Video
ID                                       : 1
Format                                   : HEVC
Format/Info                              : High Efficiency Video Coding
Format profile                           : Main@L4.0
Codec ID                                 : V_MPEGH/ISO/HEVC
Duration                                 : 1h 32mn
Bit rate                                 : 2 223 Kbps
Width                                    : 1 920 pixels
Height                                   : 800 pixels
Display aspect ratio                     : 2.40:1
Frame rate mode                          : Constant
Frame rate                               : 24.000 fps
Color space                              : YUV
Chroma subsampling                       : 4:2:0
Bit depth                                : 8 bits
Bits/(Pixel*Frame)                       : 0.060
Stream size                              : 1.44 GiB (84%)
Writing library                          : x265 2.6:[Windows][GCC 7.3.0][64 bit] 8bit+10bit+12bit
Encoding settings                        : cpuid=1173503 / frame-threads=3 / numa-pools=8 / wpp / no-pmode / no-pme / no-psnr / no-ssim / log-level=2 / input-csp=1 / input-res=1920x800 / interlace=0 / total-frames=0 / level-idc=0 / high-tier=1 / uhd-bd=0 / ref=3 / no-allow-non-conformance / no-repeat-headers / annexb / no-aud / no-hrd / info / hash=0 / no-temporal-layers / open-gop / min-keyint=24 / keyint=240 / bframes=4 / b-adapt=0 / b-pyramid / bframe-bias=0 / rc-lookahead=15 / lookahead-slices=5 / scenecut=40 / no-intra-refresh / ctu=64 / min-cu-size=8 / no-rect / no-amp / max-tu-size=32 / tu-inter-depth=1 / tu-intra-depth=1 / limit-tu=0 / rdoq-level=0 / dynamic-rd=0.00 / no-ssim-rd / signhide / no-tskip / nr-intra=0 / nr-inter=0 / no-constrained-intra / no-strong-intra-smoothing / max-merge=2 / limit-refs=3 / no-limit-modes / me=1 / subme=2 / merange=57 / temporal-mvp / weightp / no-weightb / no-analyze-src-pics / deblock=0:0 / no-sao / no-sao-non-deblock / rd=2 / no-early-skip / rskip / fast-intra / no-tskip-fast / no-cu-lossless / no-b-intra / no-splitrd-skip / rdpenalty=0 / psy-rd=2.00 / psy-rdoq=0.00 / no-rd-refine / analysis-reuse-mode=0 / no-lossless / cbqpoffs=0 / crqpoffs=0 / rc=crf / crf=20.0 / qcomp=0.60 / qpstep=4 / stats-write=0 / stats-read=0 / ipratio=1.40 / pbratio=1.30 / aq-mode=1 / aq-strength=1.00 / cutree / zone-count=0 / no-strict-cbr / qg-size=32 / no-rc-grain / qpmax=69 / qpmin=0 / no-const-vbv / sar=1 / overscan=0 / videoformat=5 / range=0 / colorprim=1 / transfer=1 / colormatrix=1 / chromaloc=0 / display-window=0 / max-cll=0,0 / min-luma=0 / max-luma=255 / log2-max-poc-lsb=8 / vui-timing-info / vui-hrd-info / slices=1 / no-opt-qp-pps / no-opt-ref-list-length-pps / no-multi-pass-opt-rps / scenecut-bias=0.05 / no-opt-cu-delta-qp / no-aq-motion / no-hdr / no-hdr-opt / no-dhdr10-opt / analysis-reuse-level=5 / scale-factor=0 / refine-intra=0 / refine-inter=0 / refine-mv=0 / no-limit-sao / ctu-info=0 / no-lowpass-dct / refine-mv-type=0 / copy-pic=1
Default                                  : Yes
Forced                                   : No
DURATION                                 : 01:32:28.667000000
NUMBER_OF_FRAMES                         : 133168
NUMBER_OF_BYTES                          : 1562744379
_STATISTICS_WRITING_APP                  : mkvmerge v20.0.0 ('I Am The Sun') 64-bit
_STATISTICS_WRITING_DATE_UTC             : 2018-10-14 19:17:10
_STATISTICS_TAGS                         : BPS DURATION NUMBER_OF_FRAMES NUMBER_OF_BYTES

Audio
ID                                       : 2
Format                                   : AC-3
Format/Info                              : Audio Coding 3
Mode extension                           : CM (complete main)
Format settings, Endianness              : Big
Codec ID                                 : A_AC3
Duration                                 : 1h 32mn
Bit rate mode                            : Constant
Bit rate                                 : 384 Kbps
Channel(s)                               : 6 channels
Channel positions                        : Front: L C R, Side: L R, LFE
Sampling rate                            : 48.0 KHz
Bit depth                                : 16 bits
Compression mode                         : Lossy
Stream size                              : 254 MiB (14%)
Title                                    : Surround
Language                                 : German
Default                                  : Yes
Forced                                   : No
DURATION                                 : 01:32:28.672000000
NUMBER_OF_FRAMES                         : 173396
NUMBER_OF_BYTES                          : 266336256
_STATISTICS_WRITING_APP                  : mkvmerge v20.0.0 ('I Am The Sun') 64-bit
_STATISTICS_WRITING_DATE_UTC             : 2018-10-14 19:17:10
_STATISTICS_TAGS                         : BPS DURATION NUMBER_OF_FRAMES NUMBER_OF_BYTES

Text
ID                                       : 3
Format                                   : PGS
Muxing mode                              : zlib
Codec ID                                 : S_HDMV/PGS
Codec ID/Info                            : The same subtitle format used on BDs/HD-DVDs
Title                                    : PGS FULL
Language                                 : German
Default                                  : No
Forced                                   : No
DURATION                                 : 01:31:58.583000000
NUMBER_OF_FRAMES                         : 2582
NUMBER_OF_BYTES                          : 32760236
_STATISTICS_WRITING_APP                  : mkvmerge v20.0.0 ('I Am The Sun') 64-bit
_STATISTICS_WRITING_DATE_UTC             : 2018-10-14 19:17:10
_STATISTICS_TAGS                         : BPS DURATION NUMBER_OF_FRAMES NUMBER_OF_BYTES


Download:
Share Online Share OnlineShare OnlineShare Online
 

Kommentare