Watch Movie | Kuro Silence3amBlack - Single Hip-Hop/Rap, Alternative Rap | [MyWifesHotFriend] Mia Pearl (03.12.2017) rq.mp4
 


 

Filecrypt zeigt vereinzelt Files als "n/a". Die Downloads sind trotzdem komplett.

DNS SERVER AENDERNum der staatlichen Zensur zu umgehen. Sollten wir von eurem Provider geseprrt werden, nutzt den TOR BROWSER oder ändert euren DNS SERVER.

Filmwünsche können bei uns im Forum abgegeben werden

Wir Speichern Nicht




 
 
 
Top Releases
Batman.The.Killing.Joke.2016...
Moonlight.2016.German.DL.DTS...
Love.Simon.2018.German.DTS.D...
Love.Simon.2018.German.DTS.D...
The.Night.Comes.for.Us.2018....
The.Night.Comes.for.Us.2018....
Cartel.Land.2015.German.DTSH...
Assassination.2015.German.DT...
The.Discovery.2017.German.AC...
Errementari.Der.Schmied.und....

Cinedubs
Bad.Spies.2018.German.AC3MD....
Bad.Spies.2018.German.AC3MD....
MEG.Biss.bald.2018.German.AC...
Slender.Man.2018.GERMAN.DL.A...
Slender.Man.2018.GERMAN.DL.A...
MEG.Biss.bald.2018.German.AC...
MEG.Biss.bald.2018.German.AC...
Searching.2018.German.AC3MD....
Searching.2018.German.AC3MD....
211.Cops.Under.Fire.2018.Ger...

Neuerscheinungen 2017-18
Point.Break.2015.German.DL.D...
Der.Himmel.ueber.Berlin.1987...
Tales.from.the.Hood.2.2018.G...
Tales.from.the.Hood.2.2018.G...
Tau.2018.German.AC3.DL.1080p...
Ploetzlich.Santa.2016.GERMAN...
Ploetzlich.Santa.2016.GERMAN...
Ploetzlich.Santa.2016.GERMAN...
Taxi.5.2018.GERMAN.AC3.1080p...
Taxi.5.2018.GERMAN.AC3.720p....

XXX
EverythingButt.18.10.05.Lise...
Spizoo.18.10.05.Christy.Love...
BurningAngel.18.10.02.Larkin...
KarupsHA.18.10.01.Scarlett.J...
Seduced.By.My.Secretary.XXX....
HotLegsAndFeet.18.10.02.Inna...
Milfty.18.10.05.Prestyn.Lee....
KarupsHA.18.10.04.Scarlett.J...
PornMegaLoad.18.10.04.Andrea...
VivThomas.18.10.05.Luna.Cora...
Foute.Meiden.Time.For.A.Full...
WankItNow.17.11.15.Sophia.Sm...
Mylfed.18.09.30.Kenzie.Taylo...
PixAndVideo.18.10.01.Lexy.Go...
SimplyAnal.18.10.04.Kerry.Ch...
MistressT.18.02.24.Just.Fuck...
TheLifeErotic.18.10.02.Bree....
MistressT.17.12.15.Goddess.P...
SweetSinner.18.10.02.Karlee....
TheUpperFloor.18.10.05.Aiden...

3D
Detective.Dee.und.die.Legend...
Detective.Dee.und.die.Legend...
Skyscraper.3D.German.DL.AC3....
Ant-Man.and.the.Wasp.2018.3D...
Jurassic.World.Das.gefallene...
Jurassic.World.Das.gefallene...
Best.of.3D.vol.10.-.12.GERMA...
Die.Biene.Maja.2.Die.Honigsp...
Sharknado.6.The.Last.One.3D....
Solo.A.Star.Wars.Story.3D.20...
Solo.A.Star.Wars.Story.3D.20...
Die.Biene.Maja.2.Die.Honigsp...
Avengers.Infinity.War.3D.201...
Avengers.Infinity.War.3D.201...
Rampage.Big.Meets.Bigger.3D....

Old_Stuff
Species.IV.Das.Erwachen.2007...
Species.IV.Das.Erwachen.2007...
Hotel.Transsilvanien.2012.Ge...
The.Dead.2010.German.DL.1080...
The.Dead.2.India.2013.German...
Britney.Spears.Live.The.Femm...
Buffy.The.Vampire.Slayer.199...
IMAX.Ride.Around.The.World.2...
Schimanski.-.Duisburg.Ruhror...
Akte.X.S02.German.DTS.DL.108...
How.I.Met.Your.Mother.S02.Ge...
Akte.X.S01.German.DTS.DL.108...
Den.Himmel.gibts.echt.DL.108...
Vikings.S02.German.DL.1080p....
Be.Kind.Rewind.Abgedreht.200...

Filme
Wolfsnaechte.2018.German.DL....
Der.Himmel.ueber.Berlin.1987...
The.Purge.S01.German.DD+51.D...
The.Purge.S01.German.DD+51.D...
Snowfall.S02.COMPLETE.GERMAN...
Marvels.Daredevil.S03.COMPLE...
Marvels.Daredevil.S03.COMPLE...
Snowfall.S02.COMPLETE.German...
Krypton.S01.GERMAN.DUBBED.72...
Michelangelo.Inferno.und.Eks...
Ein.Sommer.in.der.Provence.G...
Ein.Sommer.in.New.Jersey.200...
Ein.Tag.Blau.2008.German.DL....
Ein.Tag.in.Middleton.2013.Ge...
Ein.schoenes.Maedchen.wie.ic...
Krypton.S01.German.DD51.Dubb...
Female.Justice.aka.Blonde.Ra...
The.Outpost.S01.GERMAN.720p....
iZombie.S04.German.DD51.Dubb...
iZombie.S04.German.DD51.Dubb...
Humans.S03.German.DD20.Dubbe...
Ein.Sommer.in.New.York.Germa...
The.First.Purge.2018.German....
The.First.Purge.2018.German....

 
 
Weissensee.S01-S03.COMPLETE.German.1080p.BluRay.x264-iNTENTiON

Jahr: 2010-2015
Genre: Drama
Sprache: Deutsch AC3
Laufzeit: 45min je Folge
Bitrate: 8000 Kbps
Format: MKV
Größe: 2,5 GB je Folge
Release:

Beschreibung:

Zwei Familien in Ost-Berlin, die gegensätzlicher nicht sein könnten: die Kupfers, die als mächtiges Rad im DDR-System funktionieren und die Hausmanns, die aus dem eher kritischen Milieu stammen. Als sich Martin Kupfer in Julia Hausmann verliebt, erschüttert diese Liebe die Fundamente, auf denen die beiden Familien ihr Leben aufgebaut haben.



General
Complete name                            : Weissensee.S01E01.German.1080p.BluRay.x264-iNTENTiON\weissensee.s01e01.german.1080p.bluray.x264-intention.mkv
Format                                   : Matroska
Format version                           : Version 2
File size                                : 2.93 GiB
Duration                                 : 48mn 47s
Overall bit rate                         : 8 590 Kbps
Writing application                      : mkvmerge v4.1.1 ('Bouncin' Back') built on Jul  3 2010 22:54:08
Writing library                          : libebml v1.0.0 + libmatroska v1.0

Video
ID                                       : 1
Format                                   : AVC
Format/Info                              : Advanced Video Codec
Format profile                           : High@L4.1
Format settings, CABAC                   : Yes
Format settings, ReFrames                : 4 frames
Codec ID                                 : V_MPEG4/ISO/AVC
Duration                                 : 48mn 47s
Bit rate                                 : 8 206 Kbps
Width                                    : 1 920 pixels
Height                                   : 1 080 pixels
Display aspect ratio                     : 16:9
Frame rate mode                          : Constant
Frame rate                               : 25.000 fps
Color space                              : YUV
Chroma subsampling                       : 4:2:0
Bit depth                                : 8 bits
Scan type                                : Progressive
Bits/(Pixel*Frame)                       : 0.158
Stream size                              : 2.74 GiB (94%)
Writing library                          : x264 core 138 r2358kMod 9e941d1
Encoding settings                        : cabac=1 / ref=4 / deblock=1:-3:-3 / analyse=0x3:0x133 / me=umh / subme=7 / psy=1 / fade_compensate=0.00 / psy_rd=1.00:0.15 / mixed_ref=1 / me_range=16 / chroma_me=1 / trellis=1 / 8x8dct=1 / cqm=0 / deadzone=21,11 / fast_pskip=0 / chroma_qp_offset=-3 / threads=12 / lookahead_threads=2 / sliced_threads=0 / nr=0 / decimate=1 / interlaced=0 / bluray_compat=0 / constrained_intra=0 / bframes=3 / b_pyramid=2 / b_adapt=1 / b_bias=0 / direct=3 / weightb=1 / open_gop=0 / weightp=2 / keyint=250 / keyint_min=25 / scenecut=40 / intra_refresh=0 / rc_lookahead=40 / rc=2pass / mbtree=1 / bitrate=8206 / ratetol=1.0 / qcomp=0.60 / qpmin=0 / qpmax=69 / qpstep=4 / cplxblur=20.0 / qblur=0.5 / ip_ratio=1.40 / aq=1:1.00
Language                                 : English
Default                                  : Yes
Forced                                   : No

Audio
ID                                       : 2
Format                                   : AC-3
Format/Info                              : Audio Coding 3
Mode extension                           : CM (complete main)
Format settings, Endianness              : Big
Codec ID                                 : A_AC3
Duration                                 : 48mn 47s
Bit rate mode                            : Constant
Bit rate                                 : 384 Kbps
Channel(s)                               : 6 channels
Channel(s)_Original                      : 2 channels
Channel positions                        : Front: L R
Sampling rate                            : 48.0 KHz
Bit depth                                : 16 bits
Compression mode                         : Lossy
Stream size                              : 134 MiB (4%)
Title                                    : AC3
Language                                 : German
Default                                  : Yes
Forced                                   : No

Menu
00:00:00.000                             : en:00:00:00.000
00:10:15.920                             : en:00:10:15.920
00:20:04.680                             : en:00:20:04.680
00:29:54.200                             : en:00:29:54.200
00:39:38.200                             : en:00:39:38.200



Download:
Share-Online.biz Share-Online.bizShare-Online.bizShare-Online.biz | Rapidgator.net Rapidgator.netRapidgator.netRapidgator.net
 

Kommentare