Crystal Dream Sparkling Butterfly Bottle Theme | saison 2, épisode 3 - Chute libre | Television
 


 

Filecrypt zeigt vereinzelt Files als "n/a". Die Downloads sind trotzdem komplett.

DNS SERVER AENDERNum der staatlichen Zensur zu umgehen. Sollten wir von eurem Provider geseprrt werden, nutzt den TOR BROWSER oder ändert euren DNS SERVER.

Filmwünsche können bei uns im Forum abgegeben werden

Wir Speichern Nicht




 
 
 
Top Releases
Batman.The.Killing.Joke.2016...
Moonlight.2016.German.DL.DTS...
Love.Simon.2018.German.DTS.D...
Love.Simon.2018.German.DTS.D...
The.Night.Comes.for.Us.2018....
The.Night.Comes.for.Us.2018....
Cartel.Land.2015.German.DTSH...
Assassination.2015.German.DT...
The.Discovery.2017.German.AC...
Errementari.Der.Schmied.und....

Cinedubs
Bad.Spies.2018.German.AC3MD....
Bad.Spies.2018.German.AC3MD....
MEG.Biss.bald.2018.German.AC...
Slender.Man.2018.GERMAN.DL.A...
Slender.Man.2018.GERMAN.DL.A...
MEG.Biss.bald.2018.German.AC...
MEG.Biss.bald.2018.German.AC...
Searching.2018.German.AC3MD....
Searching.2018.German.AC3MD....
211.Cops.Under.Fire.2018.Ger...

Neuerscheinungen 2017-18
Point.Break.2015.German.DL.D...
Der.Himmel.ueber.Berlin.1987...
Tales.from.the.Hood.2.2018.G...
Tales.from.the.Hood.2.2018.G...
Tau.2018.German.AC3.DL.1080p...
Ploetzlich.Santa.2016.GERMAN...
Ploetzlich.Santa.2016.GERMAN...
Ploetzlich.Santa.2016.GERMAN...
Taxi.5.2018.GERMAN.AC3.1080p...
Taxi.5.2018.GERMAN.AC3.720p....

XXX
EverythingButt.18.10.05.Lise...
Spizoo.18.10.05.Christy.Love...
BurningAngel.18.10.02.Larkin...
KarupsHA.18.10.01.Scarlett.J...
Seduced.By.My.Secretary.XXX....
HotLegsAndFeet.18.10.02.Inna...
Milfty.18.10.05.Prestyn.Lee....
KarupsHA.18.10.04.Scarlett.J...
PornMegaLoad.18.10.04.Andrea...
VivThomas.18.10.05.Luna.Cora...
Foute.Meiden.Time.For.A.Full...
WankItNow.17.11.15.Sophia.Sm...
Mylfed.18.09.30.Kenzie.Taylo...
PixAndVideo.18.10.01.Lexy.Go...
SimplyAnal.18.10.04.Kerry.Ch...
MistressT.18.02.24.Just.Fuck...
TheLifeErotic.18.10.02.Bree....
MistressT.17.12.15.Goddess.P...
SweetSinner.18.10.02.Karlee....
TheUpperFloor.18.10.05.Aiden...

3D
Detective.Dee.und.die.Legend...
Detective.Dee.und.die.Legend...
Skyscraper.3D.German.DL.AC3....
Ant-Man.and.the.Wasp.2018.3D...
Jurassic.World.Das.gefallene...
Jurassic.World.Das.gefallene...
Best.of.3D.vol.10.-.12.GERMA...
Die.Biene.Maja.2.Die.Honigsp...
Sharknado.6.The.Last.One.3D....
Solo.A.Star.Wars.Story.3D.20...
Solo.A.Star.Wars.Story.3D.20...
Die.Biene.Maja.2.Die.Honigsp...
Avengers.Infinity.War.3D.201...
Avengers.Infinity.War.3D.201...
Rampage.Big.Meets.Bigger.3D....

Old_Stuff
Species.IV.Das.Erwachen.2007...
Species.IV.Das.Erwachen.2007...
Hotel.Transsilvanien.2012.Ge...
The.Dead.2010.German.DL.1080...
The.Dead.2.India.2013.German...
Britney.Spears.Live.The.Femm...
Buffy.The.Vampire.Slayer.199...
IMAX.Ride.Around.The.World.2...
Schimanski.-.Duisburg.Ruhror...
Akte.X.S02.German.DTS.DL.108...
How.I.Met.Your.Mother.S02.Ge...
Akte.X.S01.German.DTS.DL.108...
Den.Himmel.gibts.echt.DL.108...
Vikings.S02.German.DL.1080p....
Be.Kind.Rewind.Abgedreht.200...

Filme
Wolfsnaechte.2018.German.DL....
Der.Himmel.ueber.Berlin.1987...
The.Purge.S01.German.DD+51.D...
The.Purge.S01.German.DD+51.D...
Snowfall.S02.COMPLETE.GERMAN...
Marvels.Daredevil.S03.COMPLE...
Marvels.Daredevil.S03.COMPLE...
Snowfall.S02.COMPLETE.German...
Krypton.S01.GERMAN.DUBBED.72...
Michelangelo.Inferno.und.Eks...
Ein.Sommer.in.der.Provence.G...
Ein.Sommer.in.New.Jersey.200...
Ein.Tag.Blau.2008.German.DL....
Ein.Tag.in.Middleton.2013.Ge...
Ein.schoenes.Maedchen.wie.ic...
Krypton.S01.German.DD51.Dubb...
Female.Justice.aka.Blonde.Ra...
The.Outpost.S01.GERMAN.720p....
iZombie.S04.German.DD51.Dubb...
iZombie.S04.German.DD51.Dubb...
Humans.S03.German.DD20.Dubbe...
Ein.Sommer.in.New.York.Germa...
The.First.Purge.2018.German....
The.First.Purge.2018.German....

 
 
Weissensee.S04.COMPLETE.German.1080p.WEB.x264-BiGiNT

Jahr: 2018
Genre: Drama
Sprache: Deutsch AC3
Laufzeit: 45min je Folge
Bitrate: 4600 Kbps
Format: MKV
Größe: 1,7 GB je Folge
Release:

Beschreibung:

Zwei Familien in Ost-Berlin, die gegensätzlicher nicht sein könnten: die Kupfers, die als mächtiges Rad im DDR-System funktionieren und die Hausmanns, die aus dem eher kritischen Milieu stammen. Als sich Martin Kupfer in Julia Hausmann verliebt, erschüttert diese Liebe die Fundamente, auf denen die beiden Familien ihr Leben aufgebaut haben.



General
Complete name                            : Weissensee.S04E01.German.1080p.WEB.x264-BiGiNT\weissensee.s04e01.german.1080p.web.x264-bigint.mkv
Format                                   : Matroska
Format version                           : Version 4 / Version 2
File size                                : 1.69 GiB
Duration                                 : 48mn 19s
Overall bit rate mode                    : Variable
Overall bit rate                         : 5 016 Kbps
Encoded date                             : UTC 2018-10-19 16:04:13
Writing application                      : mkvmerge v22.0.0 ('At The End Of The World') 64-bit
Writing library                          : libebml v1.3.5 + libmatroska v1.4.8
DURATION                                 : 00:46:59.240000000
NUMBER_OF_FRAMES                         : 592
NUMBER_OF_BYTES                          : 23721
_STATISTICS_WRITING_APP                  : mkvmerge v22.0.0 ('At The End Of The World') 64-bit
_STATISTICS_WRITING_DATE_UTC             : 2018-10-19 16:04:13
_STATISTICS_TAGS                         : BPS DURATION NUMBER_OF_FRAMES NUMBER_OF_BYTES

Video
ID                                       : 1
Format                                   : AVC
Format/Info                              : Advanced Video Codec
Format profile                           : Main@L4.0
Format settings, CABAC                   : Yes
Format settings, ReFrames                : 3 frames
Codec ID                                 : V_MPEG4/ISO/AVC
Duration                                 : 48mn 19s
Bit rate mode                            : Variable
Bit rate                                 : 4 640 Kbps
Maximum bit rate                         : 6 960 Kbps
Width                                    : 1 920 pixels
Height                                   : 1 080 pixels
Display aspect ratio                     : 16:9
Frame rate mode                          : Constant
Frame rate                               : 25.000 fps
Color space                              : YUV
Chroma subsampling                       : 4:2:0
Bit depth                                : 8 bits
Scan type                                : Progressive
Bits/(Pixel*Frame)                       : 0.090
Stream size                              : 1.53 GiB (90%)
Writing library                          : x264 core 148 r2715 7e75228
Encoding settings                        : cabac=1 / ref=3 / deblock=1:0:0 / analyse=0x1:0x111 / me=umh / subme=10 / psy=1 / psy_rd=1.00:0.00 / mixed_ref=1 / me_range=24 / chroma_me=1 / trellis=2 / 8x8dct=0 / cqm=0 / deadzone=21,11 / fast_pskip=1 / chroma_qp_offset=-2 / threads=6 / lookahead_threads=1 / sliced_threads=0 / nr=0 / decimate=1 / interlaced=0 / bluray_compat=0 / stitchable=1 / constrained_intra=0 / bframes=2 / b_pyramid=0 / b_adapt=2 / b_bias=0 / direct=3 / weightb=1 / open_gop=0 / weightp=2 / keyint=50 / keyint_min=26 / scenecut=0 / intra_refresh=0 / rc_lookahead=50 / rc=2pass / mbtree=1 / bitrate=4640 / ratetol=1.0 / qcomp=0.50 / qpmin=6 / qpmax=51 / qpstep=4 / cplxblur=20.0 / qblur=0.5 / vbv_maxrate=6960 / vbv_bufsize=9280 / nal_hrd=vbr / filler=0 / ip_ratio=1.40 / aq=1:1.00
Default                                  : Yes
Forced                                   : No

Audio
ID                                       : 2
Format                                   : AC-3
Format/Info                              : Audio Coding 3
Mode extension                           : CM (complete main)
Format settings, Endianness              : Big
Codec ID                                 : A_AC3
Duration                                 : 48mn 19s
Bit rate mode                            : Constant
Bit rate                                 : 384 Kbps
Channel(s)                               : 6 channels
Channel positions                        : Front: L C R, Side: L R, LFE
Sampling rate                            : 48.0 KHz
Bit depth                                : 16 bits
Compression mode                         : Lossy
Stream size                              : 133 MiB (8%)
Language                                 : German
Default                                  : Yes
Forced                                   : No

Text #1
ID                                       : 3
Format                                   : UTF-8
Codec ID                                 : S_TEXT/UTF8
Codec ID/Info                            : UTF-8 Plain Text
Title                                    : Forced
Language                                 : German
Default                                  : Yes
Forced                                   : Yes

Text #2
ID                                       : 4
Format                                   : UTF-8
Codec ID                                 : S_TEXT/UTF8
Codec ID/Info                            : UTF-8 Plain Text
Title                                    : Deutsch
Language                                 : German
Default                                  : No
Forced                                   : No



Download:
Share-Online.biz Share-Online.bizShare-Online.bizShare-Online.biz | Rapidgator.net Rapidgator.netRapidgator.netRapidgator.net
 

Kommentare