Watch Movie | Kuro Silence3amBlack - Single Hip-Hop/Rap, Alternative Rap | [MyWifesHotFriend] Mia Pearl (03.12.2017) rq.mp4
 


 

Filecrypt zeigt vereinzelt Files als "n/a". Die Downloads sind trotzdem komplett.

DNS SERVER AENDERNum der staatlichen Zensur zu umgehen. Sollten wir von eurem Provider geseprrt werden, nutzt den TOR BROWSER oder ändert euren DNS SERVER.

Filmwünsche können bei uns im Forum abgegeben werden

Wir Speichern Nicht




 
 
 
Top Releases
Kedi.Von.Katzen.und.Menschen...
Skyscraper.German.DL.AC3.Dub...
Skyscraper.German.DL.AC3.Dub...
Hereditary.Das.Vermaechtnis....
Hotel.Transsilvanien.3.Ein.M...
Hereditary.2018.MULTi.COMPLE...
Ant-Man.and.the.Wasp.2018.Ge...
Meine.Weihnachtsliebe.2016.G...
Meine.Weihnachtsliebe.2016.G...
Ein.Weihnachtswunder.24.Tuer...

Cinedubs
Bad.Spies.2018.German.AC3MD....
Bad.Spies.2018.German.AC3MD....
MEG.Biss.bald.2018.German.AC...
Slender.Man.2018.GERMAN.DL.A...
Slender.Man.2018.GERMAN.DL.A...
MEG.Biss.bald.2018.German.AC...
MEG.Biss.bald.2018.German.AC...
Searching.2018.German.AC3MD....
Searching.2018.German.AC3MD....
211.Cops.Under.Fire.2018.Ger...

Neuerscheinungen 2017-18
Antiviral.2012.MULTI.COMPLET...
Antiviral.2012.GERMAN.DL.108...
Patient.Zero.2018.German.DTS...
Patient.Zero.2018.German.DTS...
The.Jurassic.Games.2018.GERM...
Jeepers.Creepers.3.2017.Germ...
Men.At.Work.1990.MULTi.COMPL...
Men.at.Work.1990.German.DL.1...
Das.ist.erst.der.Anfang.Just...
Das.ist.erst.der.Anfang.Miss...

XXX
PornMegaLoad.18.10.03.Vanna....
FTVMilfs.18.10.02.Ryan.Keely...
LaCochonne.18.10.01.Kristy.B...
NubileFilms.18.10.02.Cherry....
InTheCrack.E1456.Shrima.Mala...
VIPArea.18.10.05.Vanessa.Ver...
WankItNow.17.11.14.Tindra.Fr...
ATKHairy.18.10.02.Malta.XXX....
MistressT.18.06.01.Clinical....
Penthouse.Sinful.Deeds.And.D...
BigButtsLikeItBig.18.10.01.L...
GirlsOutWest.18.10.05.May.XX...
BlacksOnBlondes.18.10.02.Pep...
PornMegaLoad.18.10.01.Terra....
DevilsFilm.Blacked.Out.10.XX...
ATKGirlfriends.18.10.01.Zoe....
DevilsFilm.18.10.03.Mandy.Mu...
MilfBody.18.10.03.Aubrey.Bla...
ATKGirlfriends.18.10.05.Mega...
MistressT.17.09.11.BBC.Fag.W...

3D
Detective.Dee.und.die.Legend...
Skyscraper.3D.German.DL.AC3....
Ant-Man.and.the.Wasp.2018.3D...
Jurassic.World.Das.gefallene...
Jurassic.World.Das.gefallene...
Best.of.3D.vol.10.-.12.GERMA...
Die.Biene.Maja.2.Die.Honigsp...
Sharknado.6.The.Last.One.3D....
Solo.A.Star.Wars.Story.3D.20...
Solo.A.Star.Wars.Story.3D.20...
Die.Biene.Maja.2.Die.Honigsp...
Avengers.Infinity.War.3D.201...
Avengers.Infinity.War.3D.201...
Rampage.Big.Meets.Bigger.3D....
Rampage.Big.Meets.Bigger.3D....

Old_Stuff
Species.IV.Das.Erwachen.2007...
Species.IV.Das.Erwachen.2007...
Hotel.Transsilvanien.2012.Ge...
The.Dead.2010.German.DL.1080...
The.Dead.2.India.2013.German...
Britney.Spears.Live.The.Femm...
Buffy.The.Vampire.Slayer.199...
IMAX.Ride.Around.The.World.2...
Schimanski.-.Duisburg.Ruhror...
Akte.X.S02.German.DTS.DL.108...
How.I.Met.Your.Mother.S02.Ge...
Akte.X.S01.German.DTS.DL.108...
Den.Himmel.gibts.echt.DL.108...
Vikings.S02.German.DL.1080p....
Be.Kind.Rewind.Abgedreht.200...

Filme
The.Honor.of.Killing.2012.Ge...
Ein.Sarg.aus.Hongkong.1964.G...
Ein.Richter.sieht.rot.1983.G...
Ein.Vogel.auf.dem.Drahtseil....
Antiviral.2012.GERMAN.720p.B...
The.Glass.Shield.Auf.Ehre.un...
Wildauge.The.Midwife.German....
Descent.2007.German.DTS.DL.1...
The.Last.Warrior.2000.German...
Cannibal.Rising.2012.German....
Die.vier.Schaedel.des.Jonath...
You.Cant.Kill.Stephen.King.2...
Wake.Wood.2011.German.DTS.DL...
Ein.Mord.mit.Aussicht.2015.G...
Boris.Becker.Der.Spieler.201...
Ein.Leben.fuer.ein.Leben.Ada...
Die.vier.Soehne.der.Katie.El...
Ein.Kuss.vor.dem.tode.1956.G...
Ein.Mann.fuer.gewisse.Stunde...
Ein.letzter.Sommer.2010.Germ...
Pusher.2012.German.DL.1080p....
Draculas.Bluthochzeit.mit.Fr...
Mr.Destiny.1990.German.AC3D....
Late.Phases.2014.German.AC3....

 
 
Tau.2018.German.AC3.DL.1080p.WEB-DL.x265-FuN

Jahr: 2018
Genre: Sci-Fi | Thriller
Sprache: Deutsch AC3 | Englisch AC3
Laufzeit: 1h 37mn
Bitrate: 2 767 Kbps
Format: MKV
Größe: 1.89 GiB
Release:

Beschreibung:

Julia (Maika Monroe) wird entführt und im Rahmen eines tödlichen Experimentes gefangen gehalten: in einem intelligenten Haus. Am Ausbruch aus ihrem modernen Gefängnis hindert sie einzig und allein TAU, die fortgeschrittene künstliche Intelligenz, die von ihren Kidnappern entwickelt wurde. Um ihre Freiheit zurückzuerlangen, müsste Julia also das Computerprogramm knacken, welches das Haus steuert. Doch TAU ist mächtig und lernt durch die Anwesenheit der jungen Frau immer mehr dazu.




Format                                   : Matroska
Format version                           : Version 4 / Version 2
File size                                : 1.89 GiB
Duration                                 : 1h 37mn
Overall bit rate                         : 2 767 Kbps
Encoded date                             : UTC 2018-10-15 11:34:07
Writing application                      : HandBrake 20180926214903-4981e11-master 2018092701
Writing library                          : Lavf58.12.100

Video
ID                                       : 1
Format                                   : HEVC
Format/Info                              : High Efficiency Video Coding
Format profile                           : Main@L4.0
Codec ID                                 : V_MPEGH/ISO/HEVC
Duration                                 : 1h 37mn
Bit rate                                 : 1 944 Kbps
Width                                    : 1 920 pixels
Height                                   : 804 pixels
Display aspect ratio                     : 2.40:1
Frame rate mode                          : Constant
Frame rate                               : 23.976 fps
Color space                              : YUV
Chroma subsampling                       : 4:2:0
Bit depth                                : 8 bits
Bits/(Pixel*Frame)                       : 0.053
Stream size                              : 1.33 GiB (70%)
Writing library                          : x265 2.8:[Windows][GCC 7.1.0][64 bit] 8bit+10bit+12bit
Encoding settings                        : cpuid=1111039 / frame-threads=3 / numa-pools=8 / wpp / no-pmode / no-pme / no-psnr / no-ssim / log-level=2 / input-csp=1 / input-res=1920x804 / interlace=0 / total-frames=0 / level-idc=0 / high-tier=1 / uhd-bd=0 / ref=3 / no-allow-non-conformance / no-repeat-headers / annexb / no-aud / no-hrd / info / hash=0 / no-temporal-layers / open-gop / min-keyint=24 / keyint=240 / gop-lookahead=0 / bframes=4 / b-adapt=2 / b-pyramid / bframe-bias=0 / rc-lookahead=20 / lookahead-slices=5 / scenecut=40 / radl=0 / no-intra-refresh / ctu=64 / min-cu-size=8 / no-rect / no-amp / max-tu-size=32 / tu-inter-depth=1 / tu-intra-depth=1 / limit-tu=0 / rdoq-level=0 / dynamic-rd=0.00 / no-ssim-rd / signhide / no-tskip / nr-intra=0 / nr-inter=0 / no-constrained-intra / no-strong-intra-smoothing / max-merge=2 / limit-refs=3 / no-limit-modes / me=1 / subme=2 / merange=57 / temporal-mvp / weightp / no-weightb / no-analyze-src-pics / deblock=0:0 / no-sao / no-sao-non-deblock / rd=3 / no-early-skip / rskip / no-fast-intra / no-tskip-fast / no-cu-lossless / no-b-intra / no-splitrd-skip / rdpenalty=0 / psy-rd=2.00 / psy-rdoq=0.00 / no-rd-refine / no-lossless / cbqpoffs=0 / crqpoffs=0 / rc=crf / crf=20.0 / qcomp=0.60 / qpstep=4 / stats-write=0 / stats-read=0 / ipratio=1.40 / pbratio=1.30 / aq-mode=1 / aq-strength=1.00 / cutree / zone-count=0 / no-strict-cbr / qg-size=32 / no-rc-grain / qpmax=69 / qpmin=0 / no-const-vbv / sar=1 / overscan=0 / videoformat=5 / range=0 / colorprim=1 / transfer=1 / colormatrix=1 / chromaloc=0 / display-window=0 / max-cll=0,0 / min-luma=0 / max-luma=255 / log2-max-poc-lsb=8 / vui-timing-info / vui-hrd-info / slices=1 / no-opt-qp-pps / no-opt-ref-list-length-pps / no-multi-pass-opt-rps / scenecut-bias=0.05 / no-opt-cu-delta-qp / no-aq-motion / no-hdr / no-hdr-opt / no-dhdr10-opt / no-idr-recovery-sei / analysis-reuse-level=5 / scale-factor=0 / refine-intra=0 / refine-inter=0 / refine-mv=0 / no-limit-sao / ctu-info=0 / no-lowpass-dct / refine-mv-type=0 / copy-pic=1 / max-ausize-factor=1.0 / no-dynamic-refine / no-single-sei
Default                                  : Yes
Forced                                   : No
DURATION                                 : 01:37:40.235000000

Audio #1
ID                                       : 2
Format                                   : AC-3
Format/Info                              : Audio Coding 3
Mode extension                           : CM (complete main)
Format settings, Endianness              : Big
Codec ID                                 : A_AC3
Duration                                 : 1h 37mn
Bit rate mode                            : Constant
Bit rate                                 : 384 Kbps
Channel(s)                               : 6 channels
Channel positions                        : Front: L C R, Side: L R, LFE
Sampling rate                            : 48.0 KHz
Bit depth                                : 16 bits
Compression mode                         : Lossy
Delay relative to video                  : -5ms
Stream size                              : 268 MiB (14%)
Title                                    : Surround
Language                                 : German
Default                                  : Yes
Forced                                   : No
DURATION                                 : 01:37:40.640000000

Audio #2
ID                                       : 3
Format                                   : AC-3
Format/Info                              : Audio Coding 3
Mode extension                           : CM (complete main)
Format settings, Endianness              : Big
Codec ID                                 : A_AC3
Duration                                 : 1h 37mn
Bit rate mode                            : Constant
Bit rate                                 : 384 Kbps
Channel(s)                               : 6 channels
Channel positions                        : Front: L C R, Side: L R, LFE
Sampling rate                            : 48.0 KHz
Bit depth                                : 16 bits
Compression mode                         : Lossy
Delay relative to video                  : -5ms
Stream size                              : 268 MiB (14%)
Title                                    : Surround
Language                                 : English
Default                                  : No
Forced                                   : No
DURATION                                 : 01:37:40.640000000



Download:
Share Online Share OnlineShare OnlineShare Online
 

Kommentare