Nicole Anderson | Eps8 Into the Badlands - Season 3 (2018) | Катастрофа
 


 

Filecrypt zeigt vereinzelt Files als "n/a". Die Downloads sind trotzdem komplett.

DNS SERVER AENDERNum der staatlichen Zensur zu umgehen. Sollten wir von eurem Provider geseprrt werden, nutzt den TOR BROWSER oder ändert euren DNS SERVER.

Filmwünsche können bei uns im Forum abgegeben werden

Wir Speichern Nicht




 
 
 
Top Releases
Kedi.Von.Katzen.und.Menschen...
Skyscraper.German.DL.AC3.Dub...
Skyscraper.German.DL.AC3.Dub...
Hereditary.Das.Vermaechtnis....
Hotel.Transsilvanien.3.Ein.M...
Hereditary.2018.MULTi.COMPLE...
Ant-Man.and.the.Wasp.2018.Ge...
Meine.Weihnachtsliebe.2016.G...
Meine.Weihnachtsliebe.2016.G...
Ein.Weihnachtswunder.24.Tuer...

Cinedubs
Bad.Spies.2018.German.AC3MD....
Bad.Spies.2018.German.AC3MD....
MEG.Biss.bald.2018.German.AC...
Slender.Man.2018.GERMAN.DL.A...
Slender.Man.2018.GERMAN.DL.A...
MEG.Biss.bald.2018.German.AC...
MEG.Biss.bald.2018.German.AC...
Searching.2018.German.AC3MD....
Searching.2018.German.AC3MD....
211.Cops.Under.Fire.2018.Ger...

Neuerscheinungen 2017-18
Patient.Zero.2018.German.DTS...
Patient.Zero.2018.German.DTS...
The.Jurassic.Games.2018.GERM...
Jeepers.Creepers.3.2017.Germ...
Men.At.Work.1990.MULTi.COMPL...
Men.at.Work.1990.German.DL.1...
Das.ist.erst.der.Anfang.Just...
Das.ist.erst.der.Anfang.Miss...
Transit.2018.German.DTS.1080...
Transit.2018.German.DTS.720p...

XXX
PornMegaLoad.18.10.03.Vanna....
FTVMilfs.18.10.02.Ryan.Keely...
LaCochonne.18.10.01.Kristy.B...
NubileFilms.18.10.02.Cherry....
InTheCrack.E1456.Shrima.Mala...
VIPArea.18.10.05.Vanessa.Ver...
WankItNow.17.11.14.Tindra.Fr...
ATKHairy.18.10.02.Malta.XXX....
MistressT.18.06.01.Clinical....
Penthouse.Sinful.Deeds.And.D...
BigButtsLikeItBig.18.10.01.L...
GirlsOutWest.18.10.05.May.XX...
BlacksOnBlondes.18.10.02.Pep...
PornMegaLoad.18.10.01.Terra....
DevilsFilm.Blacked.Out.10.XX...
ATKGirlfriends.18.10.01.Zoe....
DevilsFilm.18.10.03.Mandy.Mu...
MilfBody.18.10.03.Aubrey.Bla...
ATKGirlfriends.18.10.05.Mega...
MistressT.17.09.11.BBC.Fag.W...

3D
Detective.Dee.und.die.Legend...
Skyscraper.3D.German.DL.AC3....
Ant-Man.and.the.Wasp.2018.3D...
Jurassic.World.Das.gefallene...
Jurassic.World.Das.gefallene...
Best.of.3D.vol.10.-.12.GERMA...
Die.Biene.Maja.2.Die.Honigsp...
Sharknado.6.The.Last.One.3D....
Solo.A.Star.Wars.Story.3D.20...
Solo.A.Star.Wars.Story.3D.20...
Die.Biene.Maja.2.Die.Honigsp...
Avengers.Infinity.War.3D.201...
Avengers.Infinity.War.3D.201...
Rampage.Big.Meets.Bigger.3D....
Rampage.Big.Meets.Bigger.3D....

Old_Stuff
Species.IV.Das.Erwachen.2007...
Species.IV.Das.Erwachen.2007...
Hotel.Transsilvanien.2012.Ge...
The.Dead.2010.German.DL.1080...
The.Dead.2.India.2013.German...
Britney.Spears.Live.The.Femm...
Buffy.The.Vampire.Slayer.199...
IMAX.Ride.Around.The.World.2...
Schimanski.-.Duisburg.Ruhror...
Akte.X.S02.German.DTS.DL.108...
How.I.Met.Your.Mother.S02.Ge...
Akte.X.S01.German.DTS.DL.108...
Den.Himmel.gibts.echt.DL.108...
Vikings.S02.German.DL.1080p....
Be.Kind.Rewind.Abgedreht.200...

Filme
Wake.Wood.2011.German.DTS.DL...
Ein.Mord.mit.Aussicht.2015.G...
Boris.Becker.Der.Spieler.201...
Ein.Leben.fuer.ein.Leben.Ada...
Die.vier.Soehne.der.Katie.El...
Ein.Kuss.vor.dem.tode.1956.G...
Ein.Mann.fuer.gewisse.Stunde...
Ein.letzter.Sommer.2010.Germ...
Pusher.2012.German.DL.1080p....
Draculas.Bluthochzeit.mit.Fr...
Mr.Destiny.1990.German.AC3D....
Late.Phases.2014.German.AC3....
The.Big.Lebowski.1998.German...
The.Graves.German.DL.1080p.B...
Hereditary.-.Das.Vermaechtni...
Skyscraper.2018.German.AC3.2...
The.Condemned.2007.German.DT...
Hawaii.2013.German.DL.2160p....
The.Deuce.S02.GERMAN.DL.1080...
The.Deuce.S02.GERMAN.DL.720p...
Arrow.S06.GERMAN.DL.1080p.HD...
Arrow.S06.GERMAN.DL.720p.HDT...
The.Last.Ship.S05.GERMAN.DUB...
The.Last.Ship.S05.GERMAN.DUB...

 
 
Bad.Spies.2018.German.AC3MD.DL.1080p.BluRay.x264-PS

Jahr: 2018
Genre: Komödie
Sprache: Deutsch AC3 | Englisch AC3
Laufzeit: 1h 56mn
Bitrate: 9 558 Kbps
Format: MKV
Größe: 7.81 GiB
Release:

Beschreibung:

Die neurotische Audrey (Mila Kunis) fällt eines Tages aus allen Wolken, als sie herausfindet, dass ihr vermeintlich so langweiliger Ex-Freund Drew (Justin Theroux) die ganze Zeit ein internationaler Spitzenspion war. Als ihr ein USB-Stick mit gefährlichen Daten in die Hände fällt und sie zusammen mit ihrer besten Freundin, der chaotischen Morgan (Kate McKinnon), einen Mordanschlag auf ihren Verflossenen beobachtet, macht sie sich aus dem Staub und flüchtet aus Amerika. Es beginnt eine wilde Jagd durch die Hauptstädte Europas, bei der den beiden Freundinnen nicht nur die CIA, sondern auch osteuropäische Killer sowie ein mysteriöser britischer Geheimagent namens Sebastian (Sam Heughan) auf den Fersen sind. Dabei stellt sich schnell heraus, dass Audrey und Morgan nicht unbedingt das Zeug dazu haben, gute Agentinnen zu sein…



Complete name                            : ps-bd.bdmd.108.mkv
Format                                   : Matroska
Format version                           : Version 4 / Version 2
File size                                : 7.81 GiB
Duration                                 : 1h 56mn
Overall bit rate                         : 9 558 Kbps
Encoded date                             : UTC 2018-10-18 12:33:29
Writing application                      : mkvmerge v8.0.0 ('Til The Day That I Die') 64bit
Writing library                          : libebml v1.3.1 + libmatroska v1.4.2
DURATION                                 : 01:56:56.128000000
NUMBER_OF_FRAMES                         : 219254
NUMBER_OF_BYTES                          : 168387072
_STATISTICS_WRITING_APP                  : mkvmerge v8.0.0 ('Til The Day That I Die') 64bit
_STATISTICS_WRITING_DATE_UTC             : 2018-10-18 12:33:29
_STATISTICS_TAGS                         : BPS DURATION NUMBER_OF_FRAMES NUMBER_OF_BYTES

Video
ID                                       : 1
Format                                   : AVC
Format/Info                              : Advanced Video Codec
Format profile                           : High@L4.1
Format settings, CABAC                   : Yes
Format settings, ReFrames                : 5 frames
Codec ID                                 : V_MPEG4/ISO/AVC
Duration                                 : 1h 56mn
Bit rate                                 : 8 727 Kbps
Width                                    : 1 920 pixels
Height                                   : 800 pixels
Display aspect ratio                     : 2.40:1
Frame rate mode                          : Constant
Frame rate                               : 23.976 fps
Color space                              : YUV
Chroma subsampling                       : 4:2:0
Bit depth                                : 8 bits
Scan type                                : Progressive
Bits/(Pixel*Frame)                       : 0.237
Stream size                              : 6.97 GiB (89%)
Writing library                          : x264 core 157 r2932 303c484
Encoding settings                        : cabac=1 / ref=5 / deblock=1:0:0 / analyse=0x3:0x133 / me=umh / subme=7 / psy=1 / psy_rd=1.00:0.00 / mixed_ref=1 / me_range=16 / chroma_me=1 / trellis=1 / 8x8dct=1 / cqm=0 / deadzone=21,11 / fast_pskip=0 / chroma_qp_offset=-2 / threads=25 / lookahead_threads=4 / sliced_threads=0 / nr=0 / decimate=1 / interlaced=0 / bluray_compat=0 / constrained_intra=0 / bframes=3 / b_pyramid=2 / b_adapt=1 / b_bias=0 / direct=1 / weightb=1 / open_gop=0 / weightp=2 / keyint=250 / keyint_min=23 / scenecut=40 / intra_refresh=0 / rc_lookahead=40 / rc=2pass / mbtree=1 / bitrate=8727 / ratetol=1.0 / qcomp=0.60 / qpmin=0 / qpmax=69 / qpstep=4 / cplxblur=20.0 / qblur=0.5 / ip_ratio=1.40 / aq=1:1.00
Language                                 : English
Default                                  : Yes
Forced                                   : No
DURATION                                 : 01:56:56.062000000
NUMBER_OF_FRAMES                         : 168217
NUMBER_OF_BYTES                          : 7650620932
_STATISTICS_WRITING_APP                  : mkvmerge v8.0.0 ('Til The Day That I Die') 64bit
_STATISTICS_WRITING_DATE_UTC             : 2018-10-18 12:33:29
_STATISTICS_TAGS                         : BPS DURATION NUMBER_OF_FRAMES NUMBER_OF_BYTES

Audio #1
ID                                       : 2
Format                                   : AC-3
Format/Info                              : Audio Coding 3
Mode extension                           : CM (complete main)
Format settings, Endianness              : Big
Codec ID                                 : A_AC3
Duration                                 : 1h 56mn
Bit rate mode                            : Constant
Bit rate                                 : 192 Kbps
Channel(s)                               : 2 channels
Channel positions                        : Front: L R
Sampling rate                            : 48.0 KHz
Bit depth                                : 16 bits
Compression mode                         : Lossy
Stream size                              : 161 MiB (2%)
Language                                 : German
Default                                  : Yes
Forced                                   : Yes

Audio #2
ID                                       : 3
Format                                   : AC-3
Format/Info                              : Audio Coding 3
Mode extension                           : CM (complete main)
Format settings, Endianness              : Big
Codec ID                                 : A_AC3
Duration                                 : 1h 56mn
Bit rate mode                            : Constant
Bit rate                                 : 640 Kbps
Channel(s)                               : 6 channels
Channel positions                        : Front: L C R, Side: L R, LFE
Sampling rate                            : 48.0 KHz
Bit depth                                : 16 bits
Compression mode                         : Lossy
Stream size                              : 535 MiB (7%)
Language                                 : English
Default                                  : No
Forced                                   : No


Download:
Share Online Share OnlineShare OnlineShare Online
 

Kommentare