Watch movie | HD Gerald's Game (2017) | Necessary Roughness Terapia d’Urto
 


 

Filecrypt zeigt vereinzelt Files als "n/a". Die Downloads sind trotzdem komplett.

DNS SERVER AENDERNum der staatlichen Zensur zu umgehen. Sollten wir von eurem Provider geseprrt werden, nutzt den TOR BROWSER oder ändert euren DNS SERVER.

Filmwünsche können bei uns im Forum abgegeben werden

Wir Speichern Nicht




 
 
 
Top Releases
Feinde.Hostiles.2017.German....
Journeyman.2017.German.AC3.D...
Errementari.Der.Schmied.und....
Errementari.Der.Schmied.und....
Apostle.2018.German.DL.720p....
Apostle.2018.German.DL.1080p...
Wohne.lieber.ungewoehnlich.2...
The.Incredible.Jessica.James...
Wohne.lieber.ungewoehnlich.2...
Brawl.in.Cell.Block.99.UNCUT...

Cinedubs
Searching.2018.German.AC3MD....
Searching.2018.German.AC3MD....
211.Cops.Under.Fire.2018.Ger...
211.Cops.Under.Fire.2018.Ger...
MEG.Biss.bald.2018.German.AC...
MEG.Biss.bald.2018.German.AC...
Mamma.Mia.2.Here.We.Go.Again...
Mamma.Mia.2.Here.We.Go.Again...
Ant-Man.and.the.Wasp.2018.Ge...
Ant-Man.and.the.Wasp.2018.Ge...

Neuerscheinungen 2017-18
The.Watcher.Willkommen.im.Mo...
The.Watcher.Willkommen.im.Mo...
The.Darkest.Minds.Die.Ueberl...
The.Darkest.Minds.Die.Ueberl...
6.Headed.Shark.Attack.Dont.m...
6.Headed.Shark.Attack.Dont.m...
Stratton.2017.German.AC3.DL....
Muse.2017.German.DL.1080p.Bl...
Hangman.The.Killing.Game.201...
Street.Justice.Rache.kennt.k...

XXX
BlackedRaw.18.10.04.Kissa.Si...
WankItNow.17.11.17.Kate.Anne...
BreakingAsses.18.10.04.Ashle...
LezCuties.18.10.05.Nesty.Gin...
BigTitsRoundAsses.18.10.04.K...
MistressT.18.02.01.Spit.Roas...
BigTitsAtWork.18.10.03.Valen...
Penthouse.Sinful.Deeds.And.D...
MistressT.18.08.08.Specific....
PureCFNM.18.10.05.Diverse.St...
InTheCrack.E1455.Mia.Evans.X...
WankItNow.18.09.20.Jess.West...
MistressT.18.02.16.Femdom.Ru...
WankItNow.18.09.19.Lucy.Alex...
DigitalPlayground.18.10.01.M...
PlumperPass.18.10.01.Kendra....
ATKGirlfriends.18.10.02.Gia....
NuruMassage.18.10.03.Judy.Jo...
MyFriendsHotMom.18.10.04.Nin...
PureTaboo.18.10.04.Adriana.C...

3D
Jurassic.World.Das.gefallene...
Jurassic.World.Das.gefallene...
Best.of.3D.vol.10.-.12.GERMA...
Die.Biene.Maja.2.Die.Honigsp...
Sharknado.6.The.Last.One.3D....
Solo.A.Star.Wars.Story.3D.20...
Solo.A.Star.Wars.Story.3D.20...
Die.Biene.Maja.2.Die.Honigsp...
Avengers.Infinity.War.3D.201...
Avengers.Infinity.War.3D.201...
Rampage.Big.Meets.Bigger.3D....
Rampage.Big.Meets.Bigger.3D....
Rampage.Big.Meets.Bigger.3D....
Winter.Games.3D.2013.DUAL.CO...
Tomb.Raider.3D.2018.German.7...

Old_Stuff
Britney.Spears.Live.The.Femm...
Buffy.The.Vampire.Slayer.199...
IMAX.Ride.Around.The.World.2...
Schimanski.-.Duisburg.Ruhror...
Akte.X.S02.German.DTS.DL.108...
How.I.Met.Your.Mother.S02.Ge...
Akte.X.S01.German.DTS.DL.108...
Den.Himmel.gibts.echt.DL.108...
Vikings.S02.German.DL.1080p....
Be.Kind.Rewind.Abgedreht.200...
Be.Kind.Rewind.Abgedreht.200...
Dracula.The.Dark.Lord.2012.G...
21.2008.German.DL.1080p.BluR...
Achtung.fertig.WK.Swissgerma...
The.Ouija.Exorcism.2015.MULT...

Filme
Voll.verkatert.2016.German.A...
Ein.ganz.verrueckter.Freitag...
Man.Eaters.Leichenhaus.des.G...
Ein.Vogel.auf.dem.Drahtseil....
Mission.Impossible.III.2006....
The.Purge.S01.German.DD+51.D...
The.Purge.S01.German.DD+51.D...
Upside.Down.2012.German.AC3....
Street.Fighter.Die.entscheid...
Vijay.und.ich.Meine.Frau.geh...
Journeyman.2016.German.DTS.D...
Atrocious.2010.German.1080p....
Attack.from.the.Atlantic.Rim...
Fightworld.S01.Complete.Germ...
Spuk.in.Hill.House.S01.COMPL...
Spuk.in.Hill.House.S01.COMPL...
Humans.S03.German.DD20.Dubbe...
iZombie.S04.German.DD51.Dubb...
iZombie.S04.German.DD51.Dubb...
Haensel.und.Gretel.Hexenjaeg...
Juan.of.the.Dead.2011.German...
Jurassic.Park.3.2001.German....
Schrei.in.der.Stille.1990.72...
Sleepers.1996.Open.Matte.108...

 
 
The.Watcher.Willkommen.im.Motor.Way.Motel.2018.German.DL.1080p.BluRay.x264-ENCOUNTERS

Jahr: 2018
Genre: Thriller
Sprache: Deutsch DTS | Englisch DTS
Laufzeit: 1h 44mn
Bitrate: 10.4 Mbps
Format: MKV
Größe: 7.56 GiB
Release:

Beschreibung:

Nach einer Familientragödie wagen Ray und Maggie einen Neuanfang. In der Wüste von Arizona kaufen sie ein Motel. Ray entdeckt einen geheimen Raum, von dem aus man die Vorgänge in einem bestimmten Zimmer beobachten kann. Ray kann nicht widerstehen und wird Zeuge perverser Sexspiele, was ihn noch introvertierter und verschlossener werden lässt. Als in dem Zimmer eine Leiche zurückgelassen wird, meldet sich auch die Polizei, und alsbald befindet sich Ray in Schwierigkeiten.



Complete name                            : encounters-thwawiimmowamo_1080p.mkv
Format                                   : Matroska
Format version                           : Version 4 / Version 2
File size                                : 7.56 GiB
Duration                                 : 1h 44mn
Overall bit rate                         : 10.4 Mbps
Encoded date                             : UTC 2018-10-13 07:32:10
Writing application                      : mkvmerge v8.5.0 ('Vanishing Act') 64bit
Writing library                          : libebml v1.3.1 + libmatroska v1.4.2
DURATION                                 : 00:00:02.753000000
NUMBER_OF_FRAMES                         : 1
NUMBER_OF_BYTES                          : 13
_STATISTICS_WRITING_APP                  : mkvmerge v8.5.0 ('Vanishing Act') 64bit
_STATISTICS_WRITING_DATE_UTC             : 2018-10-13 07:32:10
_STATISTICS_TAGS                         : BPS DURATION NUMBER_OF_FRAMES NUMBER_OF_BYTES

Video
ID                                       : 1
Format                                   : AVC
Format/Info                              : Advanced Video Codec
Format profile                           : High@L4.1
Format settings, CABAC                   : Yes
Format settings, ReFrames                : 5 frames
Codec ID                                 : V_MPEG4/ISO/AVC
Duration                                 : 1h 44mn
Bit rate                                 : 7 186 Kbps
Width                                    : 1 920 pixels
Height                                   : 1 080 pixels
Display aspect ratio                     : 2.40:1
Original display aspect ratio            : 16:9
Frame rate mode                          : Constant
Frame rate                               : 23.976 fps
Color space                              : YUV
Chroma subsampling                       : 4:2:0
Bit depth                                : 8 bits
Scan type                                : Progressive
Bits/(Pixel*Frame)                       : 0.145
Stream size                              : 5.22 GiB (69%)
Title                                    : encounters-thwawiimmowamo_1080p
Writing library                          : x264 core 155 r2901 7d0ff22
Encoding settings                        : cabac=1 / ref=5 / deblock=1:-1:-1 / analyse=0x3:0x133 / me=umh / subme=7 / psy=1 / psy_rd=1.00:0.15 / mixed_ref=1 / me_range=16 / chroma_me=1 / trellis=1 / 8x8dct=1 / cqm=0 / deadzone=21,11 / fast_pskip=0 / chroma_qp_offset=-3 / threads=24 / lookahead_threads=4 / sliced_threads=0 / nr=0 / decimate=1 / interlaced=0 / bluray_compat=0 / constrained_intra=0 / bframes=3 / b_pyramid=2 / b_adapt=1 / b_bias=0 / direct=1 / weightb=1 / open_gop=0 / weightp=2 / keyint=250 / keyint_min=23 / scenecut=40 / intra_refresh=0 / rc_lookahead=40 / rc=crf / mbtree=1 / crf=20.0 / qcomp=0.60 / qpmin=0 / qpmax=69 / qpstep=4 / ip_ratio=1.40 / aq=1:1.00
Default                                  : Yes
Forced                                   : No

Audio #1
ID                                       : 2
Format                                   : DTS
Format/Info                              : Digital Theater Systems
Mode                                     : 16
Format settings, Endianness              : Big
Codec ID                                 : A_DTS
Duration                                 : 1h 44mn
Bit rate mode                            : Constant
Bit rate                                 : 1 509 Kbps
Channel(s)                               : 6 channels
Channel positions                        : Front: L C R, Side: L R, LFE
Sampling rate                            : 48.0 KHz
Bit depth                                : 24 bits
Compression mode                         : Lossy
Stream size                              : 1.10 GiB (14%)
Title                                    : German DTS 5.1 @ 1 509 kb/s
Language                                 : German
Default                                  : Yes
Forced                                   : No

Audio #2
ID                                       : 3
Format                                   : DTS
Format/Info                              : Digital Theater Systems
Mode                                     : 16
Format settings, Endianness              : Big
Codec ID                                 : A_DTS
Duration                                 : 1h 44mn
Bit rate mode                            : Constant
Bit rate                                 : 1 509 Kbps
Channel(s)                               : 6 channels
Channel positions                        : Front: L C R, Side: L R, LFE
Sampling rate                            : 48.0 KHz
Bit depth                                : 24 bits
Compression mode                         : Lossy
Stream size                              : 1.10 GiB (14%)
Title                                    : English DTS 5.1 @ 1 509 kb/s
Language                                 : English
Default                                  : No
Forced                                   : No

Text
ID                                       : 4
Format                                   : UTF-8
Codec ID                                 : S_TEXT/UTF8
Codec ID/Info                            : UTF-8 Plain Text
Title                                    : eng_forced.srt
Language                                 : English
Default                                  : Yes
Forced                                   : Yes


Download:
Share Online Share OnlineShare OnlineShare Online
 

Kommentare