épisode 1 The Handmaid's Tale | Deadpool (2016) 1080p BluRay AC3 6CH 2.5GB | Retouche audio/vidéo
 


 

Filecrypt zeigt vereinzelt Files als "n/a". Die Downloads sind trotzdem komplett.

DNS SERVER AENDERNum der staatlichen Zensur zu umgehen. Sollten wir von eurem Provider geseprrt werden, nutzt den TOR BROWSER oder ändert euren DNS SERVER.

Filmwünsche können bei uns im Forum abgegeben werden

Wir Speichern Nicht




 
 
 
Top Releases
Errementari.Der.Schmied.und....
Errementari.Der.Schmied.und....
Apostle.2018.German.DL.720p....
Apostle.2018.German.DL.1080p...
Maleika.2017.GERMAN.DOKU.108...
Wohne.lieber.ungewoehnlich.2...
The.Incredible.Jessica.James...
Wohne.lieber.ungewoehnlich.2...
Brawl.in.Cell.Block.99.UNCUT...
Brawl.in.Cell.Block.99.UNCUT...

Cinedubs
Searching.2018.German.AC3MD....
Searching.2018.German.AC3MD....
211.Cops.Under.Fire.2018.Ger...
211.Cops.Under.Fire.2018.Ger...
The.Watcher.Willkommen.im.Mo...
The.Watcher.Willkommen.im.Mo...
MEG.Biss.bald.2018.German.AC...
MEG.Biss.bald.2018.German.AC...
Mamma.Mia.2.Here.We.Go.Again...
Mamma.Mia.2.Here.We.Go.Again...

Neuerscheinungen 2017-18
Muse.2017.German.DL.1080p.Bl...
Hangman.The.Killing.Game.201...
Street.Justice.Rache.kennt.k...
Street.Justice.Rache.kennt.k...
Muse.2017.MULTi.COMPLETE.BLU...
Siam.Untergang.des.Koenigrei...
The.Punisher.EXTENDED.GERMAN...
The.Punisher.EXTENDED.GERMAN...
No.Way.Out.Gegen.die.Flammen...
No.Way.Out.Gegen.die.Flammen...

XXX
Desperate.Mothers.And.Wives....
MistressT.18.02.27.Corporal....
DateSlam.18.10.01.Dee.First....
SisLovesMe.18.10.05.Victoria...
WankItNow.17.11.19.Cherry.Bl...
MistressT.18.03.29.Therapist...
MistressT.18.07.05.Faux.Fur....
Bang.Glamkore.18.10.04.Chloe...
FirstTimeAuditions.18.10.04....
RealityJunkies.18.10.05.Call...
DogHouseDigital.18.10.03.Shr...
ATKGirlfriends.18.10.05.Caro...
MistressT.18.08.18.Come.To.B...
Housewife1On1.18.10.01.Jessi...
VivThomas.18.10.03.Emylia.Ar...
MistressT.17.12.19.Goddess.P...
MistressT.18.02.08.Virgin.Po...
MistressT.18.05.08.New.Fuck....
ATKHairy.18.09.30.Penelope.R...
Shoplyfter.18.10.03.Emma.Sta...

3D
Jurassic.World.Das.gefallene...
Jurassic.World.Das.gefallene...
Best.of.3D.vol.10.-.12.GERMA...
Die.Biene.Maja.2.Die.Honigsp...
Sharknado.6.The.Last.One.3D....
Solo.A.Star.Wars.Story.3D.20...
Solo.A.Star.Wars.Story.3D.20...
Die.Biene.Maja.2.Die.Honigsp...
Avengers.Infinity.War.3D.201...
Avengers.Infinity.War.3D.201...
Rampage.Big.Meets.Bigger.3D....
Rampage.Big.Meets.Bigger.3D....
Rampage.Big.Meets.Bigger.3D....
Winter.Games.3D.2013.DUAL.CO...
Tomb.Raider.3D.2018.German.7...

Old_Stuff
Britney.Spears.Live.The.Femm...
Buffy.The.Vampire.Slayer.199...
IMAX.Ride.Around.The.World.2...
Schimanski.-.Duisburg.Ruhror...
Akte.X.S02.German.DTS.DL.108...
How.I.Met.Your.Mother.S02.Ge...
Akte.X.S01.German.DTS.DL.108...
Den.Himmel.gibts.echt.DL.108...
Vikings.S02.German.DL.1080p....
Be.Kind.Rewind.Abgedreht.200...
Be.Kind.Rewind.Abgedreht.200...
Dracula.The.Dark.Lord.2012.G...
21.2008.German.DL.1080p.BluR...
Achtung.fertig.WK.Swissgerma...
The.Ouija.Exorcism.2015.MULT...

Filme
Spuk.in.Hill.House.S01.COMPL...
Spuk.in.Hill.House.S01.COMPL...
Humans.S03.German.DD20.Dubbe...
iZombie.S04.German.DD51.Dubb...
iZombie.S04.German.DD51.Dubb...
Haensel.und.Gretel.Hexenjaeg...
Juan.of.the.Dead.2011.German...
Jurassic.Park.3.2001.German....
Schrei.in.der.Stille.1990.72...
Sleepers.1996.Open.Matte.108...
Feinde.Hostiles.2017.German....
Eddie.The.Sleepwalking.Canni...
Eden.2012.German.DL.1080p.Bl...
Eden.Ueberleben.um.jeden.Pre...
Eichmann.2007.German.1080p.B...
Ein.Abenteuer.in.Raum.und.Ze...
Gottes.Werk.und.Teufels.Beit...
Edgar.Allan.Poes.Lighthouse....
Edge.of.War.Zug.des.Todes.20...
Edges.of.Darkness.2009.Germa...
Edison.2005.German.1080p.Blu...
Ein.Chef.zum.Verlieben.2002....
Out.of.Rosenheim.1987.German...
Out.of.Rosenheim.1987.German...

 
 
Spuk.in.Hill.House.S01.COMPLETE.German.DL.720p.WEB.x264.iNTERNAL-BiGiNT

Jahr: 2018
Genre: Horror
Sprache: Deutsch EAC3 | Englisch EAC3
Laufzeit: 1h je Folge
Bitrate: 1000 Kbps
Format: MKV
Größe: 1 GB je Folge
Release:

Beschreibung:

Die fünf Geschwister Theodora (Kate Siegel), Steven (Michiel Huisman), Luke (Oliver Jackson-Cohen), Shirley (Elizabeth Reaser) und Nell (Victoria Pedretti) haben ihre Kindheit in einer der berüchtigtsten Geistervillen der USA verbracht. Nach dem Selbstmord ihrer jüngsten Schwester kommen die verbliebenen Vier Jahre später wieder in dem unheimlichen Anwesen zusammen, und stellen sich gezwungenermaßen den Geistern der Vergangenheit, die sie erst aus dem familiären Hill House getrieben haben. Während einige davon nur in den Köpfen und vor allem Erinnerungen der Geschwister leben, wirken wiederum andere erschreckend real.



General
Complete name                            : Spuk.in.Hill.House.S01E01.German.DL.720p.WEB.x264.iNTERNAL-BiGiNT\spuk.in.hill.house.s01e01.german.dl.720p.web.x264.internal-bigint.mkv
Format                                   : Matroska
Format version                           : Version 4 / Version 2
File size                                : 998 MiB
Duration                                 : 1h 0mn
Overall bit rate mode                    : Variable
Overall bit rate                         : 2 321 Kbps
Encoded date                             : UTC 2018-10-12 12:33:23
Writing application                      : mkvmerge v22.0.0 ('At The End Of The World') 64-bit
Writing library                          : libebml v1.3.5 + libmatroska v1.4.8
DURATION                                 : 00:58:07.693000000
NUMBER_OF_FRAMES                         : 818
NUMBER_OF_BYTES                          : 24182
_STATISTICS_WRITING_APP                  : mkvmerge v22.0.0 ('At The End Of The World') 64-bit
_STATISTICS_WRITING_DATE_UTC             : 2018-10-12 12:33:23
_STATISTICS_TAGS                         : BPS DURATION NUMBER_OF_FRAMES NUMBER_OF_BYTES

Video
ID                                       : 1
Format                                   : AVC
Format/Info                              : Advanced Video Codec
Format profile                           : Main@L3.1
Format settings, CABAC                   : Yes
Format settings, ReFrames                : 3 frames
Codec ID                                 : V_MPEG4/ISO/AVC
Duration                                 : 1h 0mn
Bit rate mode                            : Variable
Bit rate                                 : 995 Kbps
Nominal bit rate                         : 1 050 Kbps
Maximum bit rate                         : 1 575 Kbps
Width                                    : 1 280 pixels
Height                                   : 720 pixels
Display aspect ratio                     : 16:9
Frame rate mode                          : Constant
Frame rate                               : 23.976 fps
Color space                              : YUV
Chroma subsampling                       : 4:2:0
Bit depth                                : 8 bits
Scan type                                : Progressive
Bits/(Pixel*Frame)                       : 0.045
Stream size                              : 428 MiB (43%)
Writing library                          : x264 core 148 r2715 7e75228
Encoding settings                        : cabac=1 / ref=3 / deblock=1:0:0 / analyse=0x1:0x111 / me=umh / subme=10 / psy=1 / psy_rd=1.00:0.00 / mixed_ref=1 / me_range=24 / chroma_me=1 / trellis=2 / 8x8dct=0 / cqm=0 / deadzone=21,11 / fast_pskip=1 / chroma_qp_offset=-2 / threads=8 / lookahead_threads=1 / sliced_threads=0 / nr=0 / decimate=1 / interlaced=0 / bluray_compat=0 / stitchable=1 / constrained_intra=0 / bframes=2 / b_pyramid=0 / b_adapt=2 / b_bias=0 / direct=3 / weightb=1 / open_gop=0 / weightp=2 / keyint=48 / keyint_min=25 / scenecut=0 / intra_refresh=0 / rc_lookahead=48 / rc=2pass / mbtree=1 / bitrate=1050 / ratetol=1.0 / qcomp=0.50 / qpmin=6 / qpmax=51 / qpstep=4 / cplxblur=20.0 / qblur=0.5 / vbv_maxrate=1575 / vbv_bufsize=2100 / nal_hrd=vbr / filler=0 / ip_ratio=1.40 / aq=1:1.00
Default                                  : Yes
Forced                                   : No

Audio #1
ID                                       : 2
Format                                   : E-AC-3
Format/Info                              : Audio Coding 3
Format settings, Endianness              : Big
Codec ID                                 : A_EAC3
Duration                                 : 1h 0mn
Bit rate mode                            : Constant
Bit rate                                 : 640 Kbps
Channel(s)                               : 6 channels
Channel positions                        : Front: L C R, Side: L R, LFE
Sampling rate                            : 48.0 KHz
Compression mode                         : Lossy
Stream size                              : 275 MiB (28%)
Language                                 : German
Default                                  : Yes
Forced                                   : No

Audio #2
ID                                       : 3
Format                                   : E-AC-3
Format/Info                              : Audio Coding 3
Format settings, Endianness              : Big
Codec ID                                 : A_EAC3
Duration                                 : 1h 0mn
Bit rate mode                            : Constant
Bit rate                                 : 640 Kbps
Channel(s)                               : 6 channels
Channel positions                        : Front: L C R, Side: L R, LFE
Sampling rate                            : 48.0 KHz
Compression mode                         : Lossy
Stream size                              : 275 MiB (28%)
Language                                 : English
Default                                  : No
Forced                                   : No

Text #1
ID                                       : 4
Format                                   : UTF-8
Codec ID                                 : S_TEXT/UTF8
Codec ID/Info                            : UTF-8 Plain Text
Title                                    : Forced
Language                                 : German
Default                                  : Yes
Forced                                   : Yes

Text #2
ID                                       : 5
Format                                   : UTF-8
Codec ID                                 : S_TEXT/UTF8
Codec ID/Info                            : UTF-8 Plain Text
Title                                    : Deutsch
Language                                 : German
Default                                  : No
Forced                                   : No

Text #3
ID                                       : 6
Format                                   : UTF-8
Codec ID                                 : S_TEXT/UTF8
Codec ID/Info                            : UTF-8 Plain Text
Title                                    : Englisch (CC)
Language                                 : English
Default                                  : No
Forced                                   : No



Download:
Share-Online.biz Share-Online.bizShare-Online.bizShare-Online.biz | Rapidgator.net Rapidgator.netRapidgator.netRapidgator.net
 

Kommentare