O Último Suspiro – HD – Dublado Online | Chekka Chivantha Vaanam | Wotaku ni Koi wa Muzukashii Sub Indo Batch Eps 1-11 Lengkap
 


 

Filecrypt zeigt vereinzelt Files als "n/a". Die Downloads sind trotzdem komplett.

DNS SERVER AENDERNum der staatlichen Zensur zu umgehen. Sollten wir von eurem Provider geseprrt werden, nutzt den TOR BROWSER oder ändert euren DNS SERVER.

Filmwünsche können bei uns im Forum abgegeben werden

Wir Speichern Nicht




 
 
 
Top Releases
Errementari.Der.Schmied.und....
Errementari.Der.Schmied.und....
Apostle.2018.German.DL.720p....
Apostle.2018.German.DL.1080p...
Maleika.2017.GERMAN.DOKU.108...
Wohne.lieber.ungewoehnlich.2...
The.Incredible.Jessica.James...
Wohne.lieber.ungewoehnlich.2...
Brawl.in.Cell.Block.99.UNCUT...
Brawl.in.Cell.Block.99.UNCUT...

Cinedubs
Searching.2018.German.AC3MD....
Searching.2018.German.AC3MD....
211.Cops.Under.Fire.2018.Ger...
211.Cops.Under.Fire.2018.Ger...
The.Watcher.Willkommen.im.Mo...
The.Watcher.Willkommen.im.Mo...
MEG.Biss.bald.2018.German.AC...
MEG.Biss.bald.2018.German.AC...
Mamma.Mia.2.Here.We.Go.Again...
Mamma.Mia.2.Here.We.Go.Again...

Neuerscheinungen 2017-18
Muse.2017.German.DL.1080p.Bl...
Hangman.The.Killing.Game.201...
Street.Justice.Rache.kennt.k...
Street.Justice.Rache.kennt.k...
Muse.2017.MULTi.COMPLETE.BLU...
Siam.Untergang.des.Koenigrei...
The.Punisher.EXTENDED.GERMAN...
The.Punisher.EXTENDED.GERMAN...
No.Way.Out.Gegen.die.Flammen...
No.Way.Out.Gegen.die.Flammen...

XXX
Desperate.Mothers.And.Wives....
MistressT.18.02.27.Corporal....
DateSlam.18.10.01.Dee.First....
SisLovesMe.18.10.05.Victoria...
WankItNow.17.11.19.Cherry.Bl...
MistressT.18.03.29.Therapist...
MistressT.18.07.05.Faux.Fur....
Bang.Glamkore.18.10.04.Chloe...
FirstTimeAuditions.18.10.04....
RealityJunkies.18.10.05.Call...
DogHouseDigital.18.10.03.Shr...
ATKGirlfriends.18.10.05.Caro...
MistressT.18.08.18.Come.To.B...
Housewife1On1.18.10.01.Jessi...
VivThomas.18.10.03.Emylia.Ar...
MistressT.17.12.19.Goddess.P...
MistressT.18.02.08.Virgin.Po...
MistressT.18.05.08.New.Fuck....
ATKHairy.18.09.30.Penelope.R...
Shoplyfter.18.10.03.Emma.Sta...

3D
Jurassic.World.Das.gefallene...
Jurassic.World.Das.gefallene...
Best.of.3D.vol.10.-.12.GERMA...
Die.Biene.Maja.2.Die.Honigsp...
Sharknado.6.The.Last.One.3D....
Solo.A.Star.Wars.Story.3D.20...
Solo.A.Star.Wars.Story.3D.20...
Die.Biene.Maja.2.Die.Honigsp...
Avengers.Infinity.War.3D.201...
Avengers.Infinity.War.3D.201...
Rampage.Big.Meets.Bigger.3D....
Rampage.Big.Meets.Bigger.3D....
Rampage.Big.Meets.Bigger.3D....
Winter.Games.3D.2013.DUAL.CO...
Tomb.Raider.3D.2018.German.7...

Old_Stuff
Britney.Spears.Live.The.Femm...
Buffy.The.Vampire.Slayer.199...
IMAX.Ride.Around.The.World.2...
Schimanski.-.Duisburg.Ruhror...
Akte.X.S02.German.DTS.DL.108...
How.I.Met.Your.Mother.S02.Ge...
Akte.X.S01.German.DTS.DL.108...
Den.Himmel.gibts.echt.DL.108...
Vikings.S02.German.DL.1080p....
Be.Kind.Rewind.Abgedreht.200...
Be.Kind.Rewind.Abgedreht.200...
Dracula.The.Dark.Lord.2012.G...
21.2008.German.DL.1080p.BluR...
Achtung.fertig.WK.Swissgerma...
The.Ouija.Exorcism.2015.MULT...

Filme
Atrocious.2010.German.1080p....
Attack.from.the.Atlantic.Rim...
Fightworld.S01.Complete.Germ...
Spuk.in.Hill.House.S01.COMPL...
Spuk.in.Hill.House.S01.COMPL...
Humans.S03.German.DD20.Dubbe...
iZombie.S04.German.DD51.Dubb...
iZombie.S04.German.DD51.Dubb...
Haensel.und.Gretel.Hexenjaeg...
Juan.of.the.Dead.2011.German...
Jurassic.Park.3.2001.German....
Schrei.in.der.Stille.1990.72...
Sleepers.1996.Open.Matte.108...
Feinde.Hostiles.2017.German....
Eddie.The.Sleepwalking.Canni...
Eden.2012.German.DL.1080p.Bl...
Eden.Ueberleben.um.jeden.Pre...
Eichmann.2007.German.1080p.B...
Ein.Abenteuer.in.Raum.und.Ze...
Gottes.Werk.und.Teufels.Beit...
Edgar.Allan.Poes.Lighthouse....
Edge.of.War.Zug.des.Todes.20...
Edges.of.Darkness.2009.Germa...
Edison.2005.German.1080p.Blu...

 
 
Street.Fighter.Die.entscheidende.Schlacht.1994.German.AC3.DL.1080p.BluRay.x265-FuN

Jahr: 1994
Genre: Action
Sprache: Deutsch AC3 | Englisch AC3
Laufzeit: 1h 41mn
Bitrate: 3 120 Kbps
Format: MKV
Größe: 2.21 GiB
Release:

Beschreibung:

Die Welt am Abgrund: der diabolische Diktator Bison terrorisiert mit seiner gewalttätigen Streitmacht das Land. Über 60 UN Mitarbeiter hat er bereits als Geiseln, verlangt 20 Milliarden Dollar Lösegeld, der gefährliche Konflikt steht an der Schwelle eines Weltkrieges. Da tritt der Oberbefehlshaber der Alliierten Truppen, Colonel Guile mit seiner Elitekämpferin Cammy zu einer geheimen Rettungsaktion an. Guile schleust zwei kleine Waffenschieber, die er bei einer Razzia erwischt hat, als Spitzel in die Gang des Waffenhändlers Sagat ein. Doch als sich in letzter Minute die Fernsehreporterin Chun-Li Zang einmischt, mißlingt der scheinbar perfekte Plan…



Complete name                            : Street.Fighter.Die.entscheidende.Schlacht.x265.mkv
Format                                   : Matroska
Format version                           : Version 4 / Version 2
File size                                : 2.21 GiB
Duration                                 : 1h 41mn
Overall bit rate                         : 3 120 Kbps
Movie name                               : Street.Fighter.Die.entscheidende.Schlacht.1994.MULTi.COMPLETE.BLURAY-KULTFiLME
Encoded date                             : UTC 2018-10-07 01:26:02
Writing application                      : mkvmerge v20.0.0 ('I Am The Sun') 64-bit
Writing library                          : libebml v1.3.5 + libmatroska v1.4.8
Attachements                             : Cover.jpg

Video
ID                                       : 1
Format                                   : HEVC
Format/Info                              : High Efficiency Video Coding
Format profile                           : Main@L4.0
Codec ID                                 : V_MPEGH/ISO/HEVC
Duration                                 : 1h 41mn
Bit rate                                 : 2 290 Kbps
Width                                    : 1 920 pixels
Height                                   : 800 pixels
Display aspect ratio                     : 2.40:1
Frame rate mode                          : Constant
Frame rate                               : 23.976 fps
Color space                              : YUV
Chroma subsampling                       : 4:2:0
Bit depth                                : 8 bits
Bits/(Pixel*Frame)                       : 0.062
Stream size                              : 1.62 GiB (73%)
Writing library                          : x265 2.6:[Windows][GCC 7.3.0][64 bit] 8bit+10bit+12bit
Encoding settings                        : cpuid=1173503 / frame-threads=3 / numa-pools=8 / wpp / no-pmode / no-pme / no-psnr / no-ssim / log-level=2 / input-csp=1 / input-res=1920x800 / interlace=0 / total-frames=0 / level-idc=0 / high-tier=1 / uhd-bd=0 / ref=3 / no-allow-non-conformance / no-repeat-headers / annexb / no-aud / no-hrd / info / hash=0 / no-temporal-layers / open-gop / min-keyint=24 / keyint=240 / bframes=4 / b-adapt=0 / b-pyramid / bframe-bias=0 / rc-lookahead=15 / lookahead-slices=5 / scenecut=40 / no-intra-refresh / ctu=64 / min-cu-size=8 / no-rect / no-amp / max-tu-size=32 / tu-inter-depth=1 / tu-intra-depth=1 / limit-tu=0 / rdoq-level=0 / dynamic-rd=0.00 / no-ssim-rd / signhide / no-tskip / nr-intra=0 / nr-inter=0 / no-constrained-intra / no-strong-intra-smoothing / max-merge=2 / limit-refs=3 / no-limit-modes / me=1 / subme=2 / merange=57 / temporal-mvp / weightp / no-weightb / no-analyze-src-pics / deblock=0:0 / no-sao / no-sao-non-deblock / rd=2 / no-early-skip / rskip / fast-intra / no-tskip-fast / no-cu-lossless / no-b-intra / no-splitrd-skip / rdpenalty=0 / psy-rd=2.00 / psy-rdoq=0.00 / no-rd-refine / analysis-reuse-mode=0 / no-lossless / cbqpoffs=0 / crqpoffs=0 / rc=crf / crf=23.0 / qcomp=0.60 / qpstep=4 / stats-write=0 / stats-read=0 / ipratio=1.40 / pbratio=1.30 / aq-mode=1 / aq-strength=1.00 / cutree / zone-count=0 / no-strict-cbr / qg-size=32 / no-rc-grain / qpmax=69 / qpmin=0 / no-const-vbv / sar=1 / overscan=0 / videoformat=5 / range=0 / colorprim=1 / transfer=1 / colormatrix=1 / chromaloc=0 / display-window=0 / max-cll=0,0 / min-luma=0 / max-luma=255 / log2-max-poc-lsb=8 / vui-timing-info / vui-hrd-info / slices=1 / no-opt-qp-pps / no-opt-ref-list-length-pps / no-multi-pass-opt-rps / scenecut-bias=0.05 / no-opt-cu-delta-qp / no-aq-motion / no-hdr / no-hdr-opt / no-dhdr10-opt / analysis-reuse-level=5 / scale-factor=0 / refine-intra=0 / refine-inter=0 / refine-mv=0 / no-limit-sao / ctu-info=0 / no-lowpass-dct / refine-mv-type=0 / copy-pic=1
Default                                  : Yes
Forced                                   : No
DURATION                                 : 01:41:28.041000000
NUMBER_OF_FRAMES                         : 145967
NUMBER_OF_BYTES                          : 1751599290
_STATISTICS_WRITING_APP                  : mkvmerge v20.0.0 ('I Am The Sun') 64-bit
_STATISTICS_WRITING_DATE_UTC             : 2018-10-07 01:26:02
_STATISTICS_TAGS                         : BPS DURATION NUMBER_OF_FRAMES NUMBER_OF_BYTES

Audio #1
ID                                       : 2
Format                                   : AC-3
Format/Info                              : Audio Coding 3
Mode extension                           : CM (complete main)
Format settings, Endianness              : Big
Codec ID                                 : A_AC3
Duration                                 : 1h 41mn
Bit rate mode                            : Constant
Bit rate                                 : 384 Kbps
Channel(s)                               : 6 channels
Channel positions                        : Front: L C R, Side: L R, LFE
Sampling rate                            : 48.0 KHz
Bit depth                                : 16 bits
Compression mode                         : Lossy
Stream size                              : 279 MiB (12%)
Title                                    : Surround
Language                                 : German
Default                                  : Yes
Forced                                   : No
DURATION                                 : 01:41:28.096000000
NUMBER_OF_FRAMES                         : 190253
NUMBER_OF_BYTES                          : 292228608
_STATISTICS_WRITING_APP                  : mkvmerge v20.0.0 ('I Am The Sun') 64-bit
_STATISTICS_WRITING_DATE_UTC             : 2018-10-07 01:26:02
_STATISTICS_TAGS                         : BPS DURATION NUMBER_OF_FRAMES NUMBER_OF_BYTES

Audio #2
ID                                       : 3
Format                                   : AC-3
Format/Info                              : Audio Coding 3
Mode extension                           : CM (complete main)
Format settings, Endianness              : Big
Codec ID                                 : A_AC3
Duration                                 : 1h 41mn
Bit rate mode                            : Constant
Bit rate                                 : 384 Kbps
Channel(s)                               : 6 channels
Channel positions                        : Front: L C R, Side: L R, LFE
Sampling rate                            : 48.0 KHz
Bit depth                                : 16 bits
Compression mode                         : Lossy
Stream size                              : 279 MiB (12%)
Title                                    : Surround
Language                                 : English
Default                                  : No
Forced                                   : No
DURATION                                 : 01:41:28.096000000
NUMBER_OF_FRAMES                         : 190253
NUMBER_OF_BYTES                          : 292228608
_STATISTICS_WRITING_APP                  : mkvmerge v20.0.0 ('I Am The Sun') 64-bit
_STATISTICS_WRITING_DATE_UTC             : 2018-10-07 01:26:02
_STATISTICS_TAGS                         : BPS DURATION NUMBER_OF_FRAMES NUMBER_OF_BYTES


Download:
Share Online Share OnlineShare OnlineShare Online
 

Kommentare