Dil Hai Hindustani 9th September 2018 Episode Watch Online | Teenagers.Dream.52.Saskia.und.ihre.Freundin | Hajimete no Aku chap 160 - End
 


 

DNS SERVER AENDERNum der staatlichen Zensur zu umgehen. Sollten wir von eurem Provider geseprrt werden, nutzt den TOR BROWSER oder ändert euren DNS SERVER.

Filmwünsche können bei uns im Forum abgegeben werden

Wir Speichern Nicht




 
 
 
Top Releases
Lucid.Dream.2017.German.AC3....
Win.It.All.2017.German.AC3.D...
Transit.2018.GERMAN.COMPLETE...
Crouching.Tiger.Hidden.Drago...
Tully.2018.German.DL.1080p.B...
Tully.2018.DUAL.COMPLETE.BLU...
Transit.2018.German.1080p.Bl...
Jadotville.2016.German.AC3.D...
Transit.2018.German.720p.Blu...
Tully.2018.German.720p.BluRa...

Cinedubs
Ant-Man.and.the.Wasp.2018.Ge...
Ant-Man.and.the.Wasp.German....
Ant-Man.and.the.Wasp.German....
Ant-Man.and.the.Wasp.2018.Ge...
Ant-Man.and.the.Wasp.2018.Ge...
Skyscraper.German.DL.AC3.Dub...
Skyscraper.German.DL.AC3.Dub...
Hotel.Artemis.2018.GERMAN.DL...
Hotel.Artemis.2018.GERMAN.DL...
The.First.Purge.2018.German....

Neuerscheinungen 2017-18
Havoc.Playing.with.Death.Pla...
Elvira.Herrscherin.der.Dunke...
Fuenf.Freunde.und.das.Tal.de...
Regression.2015.German.AC3.D...
Game.Over.Man.2018.German.AC...
The.Ridiculous.6.2017.German...
Havoc.Playing.with.Death.201...
Havoc.Playing.with.Death.201...
In.Wahrheit.Jette.ist.tot.20...
Sick.for.Toys.2018.German.72...

XXX
OldYoungLesbianLove.18.09.17...
Natalies.Gang.Bang.Party.XXX...
Pantyhosed4U.18.09.19.Tina.K...
Natalies.Gang.Bang.Party.XXX...
MySistersHotFriend.18.09.18....
NubileFilms.18.09.20.Alexa.G...
ATKHairy.18.09.17.Helen.Volg...
MyFriendsHotMom.18.09.20.Bri...
PlayboyPlus.18.09.16.Mashup....
PlayboyPlus.18.09.17.Kit.Rys...
Nubiles.18.09.18.Emma.Fantas...
PlumperPass.18.09.17.Asstyn....
Petite.18.09.19.Lenna.Lux.Le...
AbbyWinters.18.09.18.Rose.K....
OnlyBlowJob.18.09.20.Baby.Ni...
AbbyWinters.18.09.18.Sonya.I...
Nubiles.18.09.17.Mary.Lin.Uk...
Nubiles.18.09.18.Asuna.Fit.A...
InTheCrack.E1450.Lulu.Love.X...
NubileFilms.18.09.17.Veronic...

3D
Jurassic.World.Das.gefallene...
Jurassic.World.Das.gefallene...
Best.of.3D.vol.10.-.12.GERMA...
Die.Biene.Maja.2.Die.Honigsp...
Sharknado.6.The.Last.One.3D....
Solo.A.Star.Wars.Story.3D.20...
Solo.A.Star.Wars.Story.3D.20...
Die.Biene.Maja.2.Die.Honigsp...
Avengers.Infinity.War.3D.201...
Avengers.Infinity.War.3D.201...
Rampage.Big.Meets.Bigger.3D....
Rampage.Big.Meets.Bigger.3D....
Rampage.Big.Meets.Bigger.3D....
Winter.Games.3D.2013.DUAL.CO...
Tomb.Raider.3D.2018.German.7...

Old_Stuff
Britney.Spears.Live.The.Femm...
Buffy.The.Vampire.Slayer.199...
IMAX.Ride.Around.The.World.2...
Schimanski.-.Duisburg.Ruhror...
Akte.X.S02.German.DTS.DL.108...
How.I.Met.Your.Mother.S02.Ge...
Akte.X.S01.German.DTS.DL.108...
Den.Himmel.gibts.echt.DL.108...
Vikings.S02.German.DL.1080p....
Be.Kind.Rewind.Abgedreht.200...
Be.Kind.Rewind.Abgedreht.200...
Dracula.The.Dark.Lord.2012.G...
21.2008.German.DL.1080p.BluR...
Achtung.fertig.WK.Swissgerma...
The.Ouija.Exorcism.2015.MULT...

Filme
King.Arthur.Excalibur.Rising...
King.Arthur.Excalibur.Rising...
Flammender.Stern.1960.German...
Congo.Wo.derMensch.zur.bedro...
Congo.Wo.der.Mensch.zur.bedr...
Wie.schmeckt.das.Blut.von.Dr...
Die.Sieben.Pranken.Des.Satan...
Die.Sieben.Pranken.Des.Satan...
Lionheart.Richard.Loewenherz...
Es.tanzt.die.Goettin.1944.Ge...
The.Originals.S05.GERMAN.720...
Marvels.Agents.of.S.H.I.E.L....
Marvels.Agents.of.S.H.I.E.L....
MotoGP.Moto2.Moto3.Saison.20...
MotoGP.Moto2.Moto3.Saison.20...
Loving.Pablo.2017.German.DL....
Watchmen.2009.Ultimate.Cut.G...
Babylon.Berlin.S01.D01.GERMA...
Counterpart.S01.COMPLETE.Ger...
Counterpart.S01.COMPLETE.Ger...
Snowfall.S02.GERMAN.DUBBED.7...
The.Purge.S01.German.DD+51.D...
The.Purge.S01.German.DD+51.D...
The.Outpost.S01.GERMAN.720p....

 
 
Ant-Man.and.the.Wasp.2018.German.AC3LD.DL.1080p.BluRay.x265-FuN

Jahr: 2018
Genre: Action | Abenteuer | Sci-Fi
Sprache: Deutsch AC3 | Englisch AC3
Laufzeit: 1h 58mn
Bitrate: 2 489 Kbps
Format: MKV
Größe: 2.05 GiB
Release:

Beschreibung:
Seit den Ereignissen von „The First Avenger: Civil War“ steht Scott Lang alias Ant-Man (Paul Rudd), der im Spezialanzug seine Körpergröße massiv verändern kann, unter Hausarrest. Die meiste Zeit verbringt er nun einfach damit, ein guter Vater für seine Tochter Cassie (Abby Ryder Fortson) zu sein. Doch kurz vor Ablauf seiner Strafe wird er von seinem Mentor Dr. Hank Pym (Michael Douglas) und dessen Tochter Hope van Dyne (Evangeline Lilly) aus seinem Alltagstrott und wieder zurück ins Abenteuer gerissen. Scott soll Hank und Hope bei der Suche nach Hopes Mutter Janet (Michelle Pfeiffer) helfen, die vor langer Zeit bei einer gefährlichen Mission im subatomaren Raum verschwand. Doch bei ihrer Mission geraten Scott, Hope und Hank mit der mysteriösen Ghost (Hannah John-Kamen) aneinander, die ihre ganz eigenen Ziele verfolgt...



Format                                   : Matroska
Format version                           : Version 4 / Version 2
File size                                : 2.05 GiB
Duration                                 : 1h 58mn
Overall bit rate                         : 2 489 Kbps
Encoded date                             : UTC 2018-10-04 06:40:55
Writing application                      : HandBrake 20180926214903-4981e11-master 2018092701
Writing library                          : Lavf58.12.100

Video
ID                                       : 1
Format                                   : HEVC
Format/Info                              : High Efficiency Video Coding
Format profile                           : Main@L4.0
Codec ID                                 : V_MPEGH/ISO/HEVC
Duration                                 : 1h 58mn
Bit rate                                 : 1 832 Kbps
Width                                    : 1 920 pixels
Height                                   : 804 pixels
Display aspect ratio                     : 2.40:1
Frame rate mode                          : Constant
Frame rate                               : 23.976 fps
Color space                              : YUV
Chroma subsampling                       : 4:2:0
Bit depth                                : 8 bits
Bits/(Pixel*Frame)                       : 0.049
Stream size                              : 1.51 GiB (74%)
Writing library                          : x265 2.8:[Windows][GCC 7.1.0][64 bit] 8bit+10bit+12bit
Encoding settings                        : cpuid=1111039 / frame-threads=3 / numa-pools=8 / wpp / no-pmode / no-pme / no-psnr / no-ssim / log-level=2 / input-csp=1 / input-res=1920x804 / interlace=0 / total-frames=0 / level-idc=0 / high-tier=1 / uhd-bd=0 / ref=3 / no-allow-non-conformance / no-repeat-headers / annexb / no-aud / no-hrd / info / hash=0 / no-temporal-layers / open-gop / min-keyint=24 / keyint=240 / gop-lookahead=0 / bframes=4 / b-adapt=2 / b-pyramid / bframe-bias=0 / rc-lookahead=20 / lookahead-slices=5 / scenecut=40 / radl=0 / no-intra-refresh / ctu=64 / min-cu-size=8 / no-rect / no-amp / max-tu-size=32 / tu-inter-depth=1 / tu-intra-depth=1 / limit-tu=0 / rdoq-level=0 / dynamic-rd=0.00 / no-ssim-rd / signhide / no-tskip / nr-intra=0 / nr-inter=0 / no-constrained-intra / no-strong-intra-smoothing / max-merge=2 / limit-refs=3 / no-limit-modes / me=1 / subme=2 / merange=57 / temporal-mvp / weightp / no-weightb / no-analyze-src-pics / deblock=0:0 / no-sao / no-sao-non-deblock / rd=3 / no-early-skip / rskip / no-fast-intra / no-tskip-fast / no-cu-lossless / no-b-intra / no-splitrd-skip / rdpenalty=0 / psy-rd=2.00 / psy-rdoq=0.00 / no-rd-refine / no-lossless / cbqpoffs=0 / crqpoffs=0 / rc=crf / crf=20.0 / qcomp=0.60 / qpstep=4 / stats-write=0 / stats-read=0 / ipratio=1.40 / pbratio=1.30 / aq-mode=1 / aq-strength=1.00 / cutree / zone-count=0 / no-strict-cbr / qg-size=32 / no-rc-grain / qpmax=69 / qpmin=0 / no-const-vbv / sar=1 / overscan=0 / videoformat=5 / range=0 / colorprim=1 / transfer=1 / colormatrix=1 / chromaloc=0 / display-window=0 / max-cll=0,0 / min-luma=0 / max-luma=255 / log2-max-poc-lsb=8 / vui-timing-info / vui-hrd-info / slices=1 / no-opt-qp-pps / no-opt-ref-list-length-pps / no-multi-pass-opt-rps / scenecut-bias=0.05 / no-opt-cu-delta-qp / no-aq-motion / no-hdr / no-hdr-opt / no-dhdr10-opt / no-idr-recovery-sei / analysis-reuse-level=5 / scale-factor=0 / refine-intra=0 / refine-inter=0 / refine-mv=0 / no-limit-sao / ctu-info=0 / no-lowpass-dct / refine-mv-type=0 / copy-pic=1 / max-ausize-factor=1.0 / no-dynamic-refine / no-single-sei
Default                                  : Yes
Forced                                   : No
DURATION                                 : 01:58:06.496000000

Audio #1
ID                                       : 2
Format                                   : AC-3
Format/Info                              : Audio Coding 3
Mode extension                           : CM (complete main)
Format settings, Endianness              : Big
Codec ID                                 : A_AC3
Duration                                 : 1h 58mn
Bit rate mode                            : Constant
Bit rate                                 : 224 Kbps
Channel(s)                               : 2 channels
Channel positions                        : Front: L R
Sampling rate                            : 48.0 KHz
Bit depth                                : 16 bits
Compression mode                         : Lossy
Delay relative to video                  : 795ms
Stream size                              : 189 MiB (9%)
Title                                    : Stereo
Language                                 : German
Default                                  : Yes
Forced                                   : No
DURATION                                 : 01:58:06.619000000

Audio #2
ID                                       : 3
Format                                   : AC-3
Format/Info                              : Audio Coding 3
Mode extension                           : CM (complete main)
Format settings, Endianness              : Big
Codec ID                                 : A_AC3
Duration                                 : 1h 58mn
Bit rate mode                            : Constant
Bit rate                                 : 384 Kbps
Channel(s)                               : 6 channels
Channel positions                        : Front: L C R, Side: L R, LFE
Sampling rate                            : 48.0 KHz
Bit depth                                : 16 bits
Compression mode                         : Lossy
Delay relative to video                  : 6ms
Stream size                              : 324 MiB (15%)
Title                                    : Surround
Language                                 : English
Default                                  : No
Forced                                   : No
DURATION                                 : 01:58:06.534000000



Download:
Share Online Share OnlineShare OnlineShare Online
 

Kommentare