El Principe Dragon HDTV | The Ninth Passenger | Eps9 Alone 5
 


 

DNS SERVER AENDERNum der staatlichen Zensur zu umgehen. Sollten wir von eurem Provider geseprrt werden, nutzt den TOR BROWSER oder ändert euren DNS SERVER.

Filmwünsche können bei uns im Forum abgegeben werden

Wir Speichern Nicht




 
 
 
Top Releases
Loving.Pablo.2017.German.720...
Gutland.2017.German.1080p.WE...
Gutland.2017.German.720p.WEB...
Der.Bankier.des.Widerstands....
Der.Bankier.des.Widerstands....
Die.Warnung.2018.German.720p...
Die.Warnung.2018.German.1080...
Arthur.und.Claire.2017.Germa...
Arthur.und.Claire.2017.Germa...
Arthur.und.Claire.2017.Germa...

Cinedubs
The.Rider.2017.GERMAN.DL.AC3...
The.Rider.2017.GERMAN.DL.AC3...
Solo.A.Star.Wars.Story.2018....
Solo.A.Star.Wars.Story.2018....
Jurassic.World.2.Das.gefalle...
Ant-Man.and.the.Wasp.TS.LD.G...
Skyscraper.2018.German.AC3LD...
Jurassic.World.2.Das.gefalle...
Jurassic.World.2.Das.gefalle...
Jurassic.World.2.Das.gefalle...

Neuerscheinungen 2017-18
Violet.Evergarden.Vol1.D1.20...
The.Hurricane.Heist.2018.MUL...
The.Hurricane.Heist.2018.Ger...
The.Hurricane.Heist.2018.Ger...
I.Feel.Pretty.2018.German.DL...
Brueder.2017.GERMAN.COMPLETE...
Arthur.und.Claire.2017.GERMA...
I.Feel.Pretty.2018.German.DT...
I.Feel.Pretty.2018.German.DT...
Romina.2018.German.1080p.WEB...

XXX
BurningAngel.18.09.04.Kendra...
DigitalPlayground.18.09.03.M...
DeepThroatSirens.18.09.03.Su...
ClubSeventeen.18.09.04.Lilia...
ClubSeventeen.15.11.24.Nessy...
AussieDoll.17.05.14.Leila.Ge...
DeepThroatSirens.18.08.29.Pr...
ClubSeventeen.15.11.13.Monik...
CreampieInAsia.18.08.31.Wan....
ATKHairy.18.09.01.Ivy.Adams....
AussieDoll.17.05.12.Leila.Se...
ClubSeventeen.15.11.30.Anton...
ATKHairy.18.09.02.Helen.Volg...
AussieDoll.17.05.06.Leila.Se...
DevilsFilm.18.09.04.Aaliyah....
DateSlam.18.09.03.Julia.Bubb...
DogHouseDigital.4.On.1.Gang....
ATKGirlfriends.18.09.04.Athe...
Cum4K.18.09.04.Kiara.Cole.Pu...
BumsBus.18.09.04.Gabi.Gold.G...

3D
Avengers.Infinity.War.3D.201...
Avengers.Infinity.War.3D.201...
Rampage.Big.Meets.Bigger.3D....
Rampage.Big.Meets.Bigger.3D....
Rampage.Big.Meets.Bigger.3D....
Winter.Games.3D.2013.DUAL.CO...
Tomb.Raider.3D.2018.German.7...
Rampage.Big.Meets.Bigger.3D....
Rampage.Big.Meets.Bigger.3D....
Tomb.Raider.3D.2018.MULTi.CO...
Pacific.Rim.Uprising.3D.2018...
Ready.Player.One.3D.2018.Ger...
Rampage.-.Big.Meets.Bigger.2...
Ready.Player.One.2018.3D.HOU...
Ready.Player.One.2018.3D.HSB...

Old_Stuff
Akte.X.S01.German.DTS.DL.108...
Den.Himmel.gibts.echt.DL.108...
Vikings.S02.German.DL.1080p....
Be.Kind.Rewind.Abgedreht.200...
Be.Kind.Rewind.Abgedreht.200...
Dracula.The.Dark.Lord.2012.G...
21.2008.German.DL.1080p.BluR...
Achtung.fertig.WK.Swissgerma...
The.Ouija.Exorcism.2015.MULT...
Meine.liebe.Rabenmutter.germ...
Da.Vincis.Demons.S01.Complet...
Eragon.Das.Vermaechtnis.der....
Adele.und.das.Geheimnis.des....
Die.fabelhafte.Welt.der.Amel...
Haus.des.Geldes.S01.German.M...

Filme
Shocker.1989.German.DL.1080p...
Leise.weht.der.Wind.des.Tode...
Bad.Boys.II.2003.German.DL.2...
Getrennte.Betten.1963.German...
Schmelztiegel.des.Grauens.19...
Shooter.S03.GERMAN.DUBBED.DL...
Shooter.S03.GERMAN.DUBBED.DL...
Legends.of.Tomorrow.S03.GERM...
Die.Simpsons.S29.GERMAN.DUBB...
MacGyver.S02.German.HDTV.108...
MacGyver.S02.GERMAN.DUBBED.D...
The.Deuce.S02.GERMAN.DL.1080...
Better.Call.Saul.S04.German....
Better.Call.Saul.S04.German....
Better.Call.Saul.S04.German....
Papillon.1973.German.DL.1080...
Papillon.1973.German.720p.Bl...
Die.Strategie.der.Spinne.197...
Die.Strategie.der.Spinne.197...
The.Deuce.S02.GERMAN.DL.720p...
The.Big.Bang.Theory.S11.Germ...
The.Big.Bang.Theory.S11.Germ...
Succession.S01.German.DD51.S...
Succession.S01.German.DD51.S...

 
 
Loving.Pablo.2017.German.720p.BluRay.x264-Pl3X

Jahr: 2017
Genre: Drama, Krimi
Sprache: Deutsch DTS
Laufzeit: 2h 3mn
Bitrate: 3 137 Kbps
Format: MKV
Größe: 2.70 GiB
Release:

Beschreibung:

Als Virginia Vallejo, die wohl berühmteste Reporterin Kolumbiens, 1981 auf einer elitären Party auftaucht, die von keinem Geringeren als dem Drogenbaron Pablo Escobar veranstaltet wird, kann sie noch nicht erahnen, welche Folgen dieser Abend für sie haben wird. Verführt von Pablos Charisma, lässt sich Virginia auf eine leidenschaftliche Affäre mit ihm ein – mit einem Mann, der Tausende Menschen töten ließ, Milliarden Dollar machte und folglich zum mächtigsten Drogenboss aller Zeiten aufstieg. Als politisch engagierte Nachrichtenerstatterin befindet sich Virginia auf einer Gratwanderung zwischen der DEA und ihrer feurigen Liebe zu Escobar – einer Liebe, die unter keinem guten Stern steht.

 

 



Complete name                            : pl3x-lovingpablo-720p.mkv
Format                                   : Matroska
Format version                           : Version 4 / Version 2
File size                                : 2.70 GiB
Duration                                 : 2h 3mn
Overall bit rate                         : 3 137 Kbps
Encoded date                             : UTC 2018-09-12 16:15:08
Writing application                      : mkvmerge v24.0.0 ('Beyond The Pale') 32-bit
Writing library                          : libebml v1.3.6 + libmatroska v1.4.9
DURATION                                 : 01:22:06.283000000
NUMBER_OF_FRAMES                         : 3
NUMBER_OF_BYTES                          : 85
_STATISTICS_WRITING_APP                  : mkvmerge v24.0.0 ('Beyond The Pale') 32-bit
_STATISTICS_WRITING_DATE_UTC             : 2018-09-12 16:15:08
_STATISTICS_TAGS                         : BPS DURATION NUMBER_OF_FRAMES NUMBER_OF_BYTES

Video
ID                                       : 1
Format                                   : AVC
Format/Info                              : Advanced Video Codec
Format profile                           : High@L4.1
Format settings, CABAC                   : Yes
Format settings, ReFrames                : 5 frames
Codec ID                                 : V_MPEG4/ISO/AVC
Duration                                 : 2h 3mn
Bit rate                                 : 1 565 Kbps
Width                                    : 1 280 pixels
Height                                   : 536 pixels
Display aspect ratio                     : 2.40:1
Frame rate mode                          : Constant
Frame rate                               : 24.000 fps
Color space                              : YUV
Chroma subsampling                       : 4:2:0
Bit depth                                : 8 bits
Scan type                                : Progressive
Bits/(Pixel*Frame)                       : 0.095
Stream size                              : 1.35 GiB (50%)
Writing library                          : x264 core 155 r2901 7d0ff22
Encoding settings                        : cabac=1 / ref=5 / deblock=1:-1:-1 / analyse=0x3:0x113 / me=umh / subme=7 / psy=1 / psy_rd=1.00:0.00 / mixed_ref=1 / me_range=16 / chroma_me=1 / trellis=1 / 8x8dct=1 / cqm=0 / deadzone=21,11 / fast_pskip=0 / chroma_qp_offset=-2 / threads=12 / lookahead_threads=2 / sliced_threads=0 / nr=0 / decimate=1 / interlaced=0 / bluray_compat=0 / constrained_intra=0 / bframes=3 / b_pyramid=2 / b_adapt=1 / b_bias=0 / direct=3 / weightb=1 / open_gop=0 / weightp=2 / keyint=250 / keyint_min=24 / scenecut=40 / intra_refresh=0 / rc_lookahead=40 / rc=crf / mbtree=1 / crf=20.0 / qcomp=0.60 / qpmin=0 / qpmax=69 / qpstep=4 / ip_ratio=1.40 / aq=1:1.00
Default                                  : Yes
Forced                                   : No

Audio
ID                                       : 2
Format                                   : DTS
Format/Info                              : Digital Theater Systems
Mode                                     : 16
Format settings, Endianness              : Big
Codec ID                                 : A_DTS
Duration                                 : 2h 3mn
Bit rate mode                            : Constant
Bit rate                                 : 1 509 Kbps
Channel(s)                               : 6 channels
Channel positions                        : Front: L C R, Side: L R, LFE
Sampling rate                            : 48.0 KHz
Bit depth                                : 24 bits
Compression mode                         : Lossy
Stream size                              : 1.30 GiB (48%)
Language                                 : German
Default                                  : Yes
Forced                                   : No

Text
ID                                       : 3
Format                                   : UTF-8
Codec ID                                 : S_TEXT/UTF8
Codec ID/Info                            : UTF-8 Plain Text
Language                                 : German
Default                                  : Yes
Forced                                   : Yes


Download:
Share Online Share OnlineShare OnlineShare Online
 

Kommentare