Geordie Shore S18E03 WEB h264-KOMPOST [eztv] | Sadako 3d | Diamond no Ace Season 2 Sub Indo Batch Eps 1-51 Lengkap
 


 

DNS SERVER AENDERNum der staatlichen Zensur zu umgehen. Sollten wir von eurem Provider geseprrt werden, nutzt den TOR BROWSER oder ändert euren DNS SERVER.

Filmwünsche können bei uns im Forum abgegeben werden

Wir Speichern Nicht




 
 
 
Top Releases
Der.Bankier.des.Widerstands....
Der.Bankier.des.Widerstands....
Die.Warnung.2018.German.720p...
Die.Warnung.2018.German.1080...
Arthur.und.Claire.2017.Germa...
Arthur.und.Claire.2017.Germa...
Arthur.und.Claire.2017.Germa...
Virunga.2014.German.DL.Doku....
Virunga.2014.German.DL.Doku....
Ungehorsam.2017.German.AC3.D...

Cinedubs
The.Rider.2017.GERMAN.DL.AC3...
The.Rider.2017.GERMAN.DL.AC3...
Solo.A.Star.Wars.Story.2018....
Solo.A.Star.Wars.Story.2018....
Loving.Pablo.2017.German.AC3...
Jurassic.World.2.Das.gefalle...
Ant-Man.and.the.Wasp.TS.LD.G...
Skyscraper.2018.German.AC3LD...
Jurassic.World.2.Das.gefalle...
Jurassic.World.2.Das.gefalle...

Neuerscheinungen 2017-18
The.Hurricane.Heist.2018.Ger...
The.Hurricane.Heist.2018.Ger...
I.Feel.Pretty.2018.German.DL...
Brueder.2017.GERMAN.COMPLETE...
Arthur.und.Claire.2017.GERMA...
I.Feel.Pretty.2018.German.DT...
I.Feel.Pretty.2018.German.DT...
Romina.2018.German.1080p.WEB...
Romina.2018.German.720p.WEB....
Heilstaetten.2018.German.AC3...

XXX
BlacksOnBlondes.18.09.04.Lil...
BadTeensPunished.18.09.03.Bl...
BrazzersExxtra.18.09.04.Vero...
BigGulpGirls.18.08.31.Ruthle...
BlackIsBetter.18.09.03.Abell...
BlackedRaw.18.09.04.Haley.Re...
BitchConfessions.18.09.03.Ba...
ATKHairy.18.09.01.Apricot.Pi...
BangBros18.18.09.04.Julz.Got...
ATKHairy.18.09.02.Ivy.Adams....
BackroomCastingCouch.18.09.0...
AnalTeenAngels.18.09.04.Selv...
Anilos.18.09.04.Florane.Russ...
AussieDoll.17.04.18.Leila.Se...
Bang.RealMILFs.18.09.04.Miss...
BruceAndMorgan.18.08.24.Bruc...
Bang.RealTeens.18.09.03.Soph...
AmateurCFNM.18.09.04.Charlot...
BabyGotBoobs.18.09.04.Quinn....
BigGulpGirls.18.08.27.Nora.I...

3D
Avengers.Infinity.War.3D.201...
Avengers.Infinity.War.3D.201...
Rampage.Big.Meets.Bigger.3D....
Rampage.Big.Meets.Bigger.3D....
Rampage.Big.Meets.Bigger.3D....
Winter.Games.3D.2013.DUAL.CO...
Tomb.Raider.3D.2018.German.7...
Rampage.Big.Meets.Bigger.3D....
Rampage.Big.Meets.Bigger.3D....
Tomb.Raider.3D.2018.MULTi.CO...
Pacific.Rim.Uprising.3D.2018...
Ready.Player.One.3D.2018.Ger...
Rampage.-.Big.Meets.Bigger.2...
Ready.Player.One.2018.3D.HOU...
Ready.Player.One.2018.3D.HSB...

Old_Stuff
Den.Himmel.gibts.echt.DL.108...
Vikings.S02.German.DL.1080p....
Be.Kind.Rewind.Abgedreht.200...
Be.Kind.Rewind.Abgedreht.200...
Dracula.The.Dark.Lord.2012.G...
21.2008.German.DL.1080p.BluR...
Achtung.fertig.WK.Swissgerma...
The.Ouija.Exorcism.2015.MULT...
Meine.liebe.Rabenmutter.germ...
Da.Vincis.Demons.S01.Complet...
Eragon.Das.Vermaechtnis.der....
Adele.und.das.Geheimnis.des....
Die.fabelhafte.Welt.der.Amel...
Haus.des.Geldes.S01.German.M...
How.I.Met.Your.Mother.S01.Ge...

Filme
Papillon.1973.German.DL.1080...
Papillon.1973.German.720p.Bl...
Die.Strategie.der.Spinne.197...
Die.Strategie.der.Spinne.197...
The.Deuce.S02.GERMAN.DL.720p...
The.Big.Bang.Theory.S11.Germ...
The.Big.Bang.Theory.S11.Germ...
Succession.S01.German.DD51.S...
Succession.S01.German.DD51.S...
The.Last.Ship.S05.GERMAN.DUB...
Crazy.Ex.Girlfriend.S03.Germ...
The.Last.Ship.S05.GERMAN.DUB...
Crazy.Ex.Girlfriend.S03.Germ...
Once.Upon.a.Time.S07.German....
Once.Upon.a.Time.S07.German....
Fear.The.Walking.Dead.S04.Ge...
Fear.The.Walking.Dead.S04.Ge...
Bad.Boys.II.2003.German.DL.2...
Crossfire.2008.German.DTS.10...
Crossfire.2016.German.DL.108...
Crows.Zero.2.The.Crows.are.b...
Headshot.2016.German.1080p.B...
Croupier.1998.German.AC3D.DL...
Crimson.Peak.2015.German.DTS...

 
 
Der.Bankier.des.Widerstands.2018.German.1080p.WEB.x264.iNTERNAL-BiGiNT

Jahr: 2018
Genre: Drama, Krieg
Sprache: Deutsch AC3
Laufzeit: 2h 3mn
Bitrate: 3 942 Kbps
Format: MKV
Größe: 3.40 GiB
Release:

Beschreibung:

Ein Bankier im Nazi-besetzten Amsterdam setzt seine Zukunft und seine Familie aufs Spiel, indem er eine Untergrund-Bank zur Finanzierung des Widerstands aufbaut.



Complete name                            : der.bankier.des.widerstands.2018.german.1080p.web.x264.internal-bigint.mkv
Format                                   : Matroska
Format version                           : Version 4 / Version 2
File size                                : 3.40 GiB
Duration                                 : 2h 3mn
Overall bit rate mode                    : Variable
Overall bit rate                         : 3 942 Kbps
Encoded date                             : UTC 2018-09-11 17:36:04
Writing application                      : mkvmerge v22.0.0 ('At The End Of The World') 64-bit
Writing library                          : libebml v1.3.5 + libmatroska v1.4.8
DURATION                                 : 01:26:03.833000000
NUMBER_OF_FRAMES                         : 113
NUMBER_OF_BYTES                          : 3463
_STATISTICS_WRITING_APP                  : mkvmerge v22.0.0 ('At The End Of The World') 64-bit
_STATISTICS_WRITING_DATE_UTC             : 2018-09-11 17:36:04
_STATISTICS_TAGS                         : BPS DURATION NUMBER_OF_FRAMES NUMBER_OF_BYTES

Video
ID                                       : 1
Format                                   : AVC
Format/Info                              : Advanced Video Codec
Format profile                           : Main@L4.0
Format settings, CABAC                   : Yes
Format settings, ReFrames                : 3 frames
Codec ID                                 : V_MPEG4/ISO/AVC
Duration                                 : 2h 3mn
Bit rate mode                            : Variable
Bit rate                                 : 3 320 Kbps
Maximum bit rate                         : 4 980 Kbps
Width                                    : 1 920 pixels
Height                                   : 1 080 pixels
Display aspect ratio                     : 16:9
Frame rate mode                          : Constant
Frame rate                               : 24.000 fps
Color space                              : YUV
Chroma subsampling                       : 4:2:0
Bit depth                                : 8 bits
Scan type                                : Progressive
Bits/(Pixel*Frame)                       : 0.067
Stream size                              : 2.78 GiB (82%)
Writing library                          : x264 core 148 r2715 7e75228
Encoding settings                        : cabac=1 / ref=3 / deblock=1:0:0 / analyse=0x1:0x111 / me=umh / subme=10 / psy=1 / psy_rd=1.00:0.00 / mixed_ref=1 / me_range=24 / chroma_me=1 / trellis=2 / 8x8dct=0 / cqm=0 / deadzone=21,11 / fast_pskip=1 / chroma_qp_offset=-2 / threads=8 / lookahead_threads=1 / sliced_threads=0 / nr=0 / decimate=1 / interlaced=0 / bluray_compat=0 / stitchable=1 / constrained_intra=0 / bframes=2 / b_pyramid=0 / b_adapt=2 / b_bias=0 / direct=3 / weightb=1 / open_gop=0 / weightp=2 / keyint=48 / keyint_min=25 / scenecut=0 / intra_refresh=0 / rc_lookahead=48 / rc=2pass / mbtree=1 / bitrate=3320 / ratetol=1.0 / qcomp=0.50 / qpmin=6 / qpmax=51 / qpstep=4 / cplxblur=20.0 / qblur=0.5 / vbv_maxrate=4980 / vbv_bufsize=6640 / nal_hrd=vbr / filler=0 / ip_ratio=1.40 / aq=1:1.00
Default                                  : Yes
Forced                                   : No

Audio
ID                                       : 2
Format                                   : E-AC-3
Format/Info                              : Audio Coding 3
Format settings, Endianness              : Big
Codec ID                                 : A_EAC3
Duration                                 : 2h 3mn
Bit rate mode                            : Constant
Bit rate                                 : 640 Kbps
Channel(s)                               : 6 channels
Channel positions                        : Front: L C R, Side: L R, LFE
Sampling rate                            : 48.0 KHz
Compression mode                         : Lossy
Stream size                              : 565 MiB (16%)
Language                                 : German
Default                                  : Yes
Forced                                   : No

Text #1
ID                                       : 3
Format                                   : UTF-8
Codec ID                                 : S_TEXT/UTF8
Codec ID/Info                            : UTF-8 Plain Text
Title                                    : Forced
Language                                 : German
Default                                  : Yes
Forced                                   : Yes

Text #2
ID                                       : 4
Format                                   : UTF-8
Codec ID                                 : S_TEXT/UTF8
Codec ID/Info                            : UTF-8 Plain Text
Title                                    : Deutsch
Language                                 : German
Default                                  : No
Forced                                   : No

Text #3
ID                                       : 5
Format                                   : UTF-8
Codec ID                                 : S_TEXT/UTF8
Codec ID/Info                            : UTF-8 Plain Text
Title                                    : Englisch
Language                                 : English
Default                                  : No
Forced                                   : No

Text #4
ID                                       : 6
Format                                   : UTF-8
Codec ID                                 : S_TEXT/UTF8
Codec ID/Info                            : UTF-8 Plain Text
Title                                    : Forced
Language                                 : English
Default                                  : No
Forced                                   : No



Download:
Share Online Share OnlineShare OnlineShare Online
 

Kommentare