ScreenHunter Pro 7 0 981 + Crack [CracksMind] | Fotografie | The Mummy 2017 HC 720p WEBRip 800 MB iExTV
 


 

DNS SERVER AENDERNum der staatlichen Zensur zu umgehen. Sollten wir von eurem Provider geseprrt werden, nutzt den TOR BROWSER oder ändert euren DNS SERVER.

Filmwünsche können bei uns im Forum abgegeben werden

Wir Speichern Nicht




 
 
 
Top Releases
Virunga.2014.German.DL.Doku....
Virunga.2014.German.DL.Doku....
Ungehorsam.2017.German.AC3.D...
Solange.ich.atme.2017.German...
Roman.J.Israel.Esq.Die.Wahrh...
Early.Man.Steinzeit.bereit.2...
Early.Man.Steinzeit.Bereit.2...
A.Beautiful.Day.2017.German....
Early.Man.Steinzeit.bereit.2...
Early.Man.Steinzeit.bereit.2...

Cinedubs
Solo.A.Star.Wars.Story.2018....
Loving.Pablo.2017.German.AC3...
Jurassic.World.2.Das.gefalle...
Ant-Man.and.the.Wasp.TS.LD.G...
I.Feel.Pretty.2018.German.AC...
I.Feel.Pretty.2018.German.AC...
Skyscraper.2018.German.AC3LD...
Jurassic.World.2.Das.gefalle...
Jurassic.World.2.Das.gefalle...
Jurassic.World.2.Das.gefalle...

Neuerscheinungen 2017-18
Romina.2018.German.1080p.WEB...
Romina.2018.German.720p.WEB....
Heilstaetten.2018.German.AC3...
Heilstaetten.2018.German.AC3...
Early.Man.Steinzeit.bereit.2...
You.Get.Me.2017.German.DL.72...
You.Get.Me.2017.German.DL.10...
Alien.Siege.Angriffsziel.Erd...
Alien.Siege.Angriffsziel.Erd...
Vielmachglas.German.AC3.720p...

XXX
BangBros18.18.09.04.Julz.Got...
ATKHairy.18.09.02.Ivy.Adams....
BackroomCastingCouch.18.09.0...
AnalTeenAngels.18.09.04.Selv...
Anilos.18.09.04.Florane.Russ...
AussieDoll.17.04.18.Leila.Se...
Bang.RealMILFs.18.09.04.Miss...
BruceAndMorgan.18.08.24.Bruc...
Bang.RealTeens.18.09.03.Soph...
AmateurCFNM.18.09.04.Charlot...
BabyGotBoobs.18.09.04.Quinn....
BigGulpGirls.18.08.27.Nora.I...
Beauty4K.18.09.03.Nikol.Baby...
ATKGirlfriends.18.09.03.Lily...
BlackValleyGirls.18.09.04.Ho...
AuntJudys.18.09.03.Helen.Vol...
BeautyAndTheSenior.18.08.26....
AssParade.18.09.03.Rose.Monr...
BigNaturals.18.09.04.Jenna.F...
BigWetButts.18.09.03.Karmen....

3D
Avengers.Infinity.War.3D.201...
Avengers.Infinity.War.3D.201...
Rampage.Big.Meets.Bigger.3D....
Rampage.Big.Meets.Bigger.3D....
Rampage.Big.Meets.Bigger.3D....
Winter.Games.3D.2013.DUAL.CO...
Tomb.Raider.3D.2018.German.7...
Rampage.Big.Meets.Bigger.3D....
Rampage.Big.Meets.Bigger.3D....
Tomb.Raider.3D.2018.MULTi.CO...
Pacific.Rim.Uprising.3D.2018...
Ready.Player.One.3D.2018.Ger...
Rampage.-.Big.Meets.Bigger.2...
Ready.Player.One.2018.3D.HOU...
Ready.Player.One.2018.3D.HSB...

Old_Stuff
Den.Himmel.gibts.echt.DL.108...
Vikings.S02.German.DL.1080p....
Be.Kind.Rewind.Abgedreht.200...
Be.Kind.Rewind.Abgedreht.200...
Dracula.The.Dark.Lord.2012.G...
21.2008.German.DL.1080p.BluR...
Achtung.fertig.WK.Swissgerma...
The.Ouija.Exorcism.2015.MULT...
Meine.liebe.Rabenmutter.germ...
Da.Vincis.Demons.S01.Complet...
Eragon.Das.Vermaechtnis.der....
Adele.und.das.Geheimnis.des....
Die.fabelhafte.Welt.der.Amel...
Haus.des.Geldes.S01.German.M...
How.I.Met.Your.Mother.S01.Ge...

Filme
Papillon.1973.German.DL.1080...
Papillon.1973.German.720p.Bl...
Die.Strategie.der.Spinne.197...
Die.Strategie.der.Spinne.197...
The.Deuce.S02.GERMAN.DL.720p...
The.Big.Bang.Theory.S11.Germ...
The.Big.Bang.Theory.S11.Germ...
Succession.S01.German.DD51.S...
Succession.S01.German.DD51.S...
The.Last.Ship.S05.GERMAN.DUB...
Crazy.Ex.Girlfriend.S03.Germ...
The.Last.Ship.S05.GERMAN.DUB...
Crazy.Ex.Girlfriend.S03.Germ...
Once.Upon.a.Time.S07.German....
Once.Upon.a.Time.S07.German....
Fear.The.Walking.Dead.S04.Ge...
Fear.The.Walking.Dead.S04.Ge...
Bad.Boys.II.2003.German.DL.2...
Crossfire.2008.German.DTS.10...
Crossfire.2016.German.DL.108...
Crows.Zero.2.The.Crows.are.b...
Headshot.2016.German.1080p.B...
Croupier.1998.German.AC3D.DL...
Crimson.Peak.2015.German.DTS...

 
 
Papillon.1973.German.720p.BluRay.x264-iNKLUSiON

Jahr: 1973
Genre: Biografie, Drama
Sprache: Deutsch DTS
Laufzeit: 2h 30mn
Bitrate: 4 662 Kbps
Format: MKV
Größe: 4.90 GiB
Release:

Beschreibung:

Der Franzose Henri Charrière, genannt Papillon, wird wegen eines Mordes, den er nicht begangen hat, zu lebenslanger Zwangsarbeit in der Strafkolonie Bagno auf der “Teufelsinsel” in Französisch-Guyana verurteilt. Dort herrschen unmenschliche Zustände. In tropischer Hitze, bei mangelhafter Ernährung, Fieber und unter sadistischen Aufsehern hält sich Papillon nur mit dem Gedanken an Flucht aufrecht. Der erste Versuch scheitert. Henri landet in Einzelhaft, die er nur durch seinen Freund, den Geldfälscher Vega überlebt. Der zweite Versuch gelingt.



Complete name                            : inkl-papillion-720p.mkv
Format                                   : Matroska
Format version                           : Version 4 / Version 2
File size                                : 4.90 GiB
Duration                                 : 2h 30mn
Overall bit rate                         : 4 662 Kbps
Encoded date                             : UTC 2018-09-10 15:17:33
Writing application                      : mkvmerge v24.0.0 ('Beyond The Pale') 32-bit
Writing library                          : libebml v1.3.6 + libmatroska v1.4.9
DURATION                                 : 02:06:48.924000000
NUMBER_OF_FRAMES                         : 4
NUMBER_OF_BYTES                          : 87
_STATISTICS_WRITING_APP                  : mkvmerge v24.0.0 ('Beyond The Pale') 32-bit
_STATISTICS_WRITING_DATE_UTC             : 2018-09-10 15:17:33
_STATISTICS_TAGS                         : BPS DURATION NUMBER_OF_FRAMES NUMBER_OF_BYTES

Video
ID                                       : 1
Format                                   : AVC
Format/Info                              : Advanced Video Codec
Format profile                           : High@L4.1
Format settings, CABAC                   : Yes
Format settings, ReFrames                : 5 frames
Codec ID                                 : V_MPEG4/ISO/AVC
Duration                                 : 2h 30mn
Bit rate                                 : 3 061 Kbps
Width                                    : 1 280 pixels
Height                                   : 536 pixels
Display aspect ratio                     : 2.40:1
Frame rate mode                          : Constant
Frame rate                               : 23.976 fps
Color space                              : YUV
Chroma subsampling                       : 4:2:0
Bit depth                                : 8 bits
Scan type                                : Progressive
Bits/(Pixel*Frame)                       : 0.186
Stream size                              : 3.22 GiB (66%)
Writing library                          : x264 core 155 r2901 7d0ff22
Encoding settings                        : cabac=1 / ref=5 / deblock=1:-1:-1 / analyse=0x3:0x113 / me=umh / subme=7 / psy=1 / psy_rd=1.00:0.00 / mixed_ref=1 / me_range=16 / chroma_me=1 / trellis=1 / 8x8dct=1 / cqm=0 / deadzone=21,11 / fast_pskip=0 / chroma_qp_offset=-2 / threads=12 / lookahead_threads=2 / sliced_threads=0 / nr=0 / decimate=1 / interlaced=0 / bluray_compat=0 / constrained_intra=0 / bframes=3 / b_pyramid=2 / b_adapt=1 / b_bias=0 / direct=3 / weightb=1 / open_gop=0 / weightp=2 / keyint=250 / keyint_min=23 / scenecut=40 / intra_refresh=0 / rc_lookahead=40 / rc=crf / mbtree=1 / crf=20.0 / qcomp=0.60 / qpmin=0 / qpmax=69 / qpstep=4 / ip_ratio=1.40 / aq=1:1.00
Default                                  : Yes
Forced                                   : No

Audio
ID                                       : 2
Format                                   : DTS
Format/Info                              : Digital Theater Systems
Mode                                     : 16
Format settings, Endianness              : Big
Codec ID                                 : A_DTS
Duration                                 : 2h 30mn
Bit rate mode                            : Constant
Bit rate                                 : 1 509 Kbps
Channel(s)                               : 2 channels
Channel positions                        : Front: L R
Sampling rate                            : 48.0 KHz
Bit depth                                : 24 bits
Compression mode                         : Lossy
Stream size                              : 1.59 GiB (32%)
Language                                 : German
Default                                  : Yes
Forced                                   : No

Text
ID                                       : 3
Format                                   : UTF-8
Codec ID                                 : S_TEXT/UTF8
Codec ID/Info                            : UTF-8 Plain Text
Language                                 : German
Default                                  : Yes
Forced                                   : Yes


Download:
Share Online Share OnlineShare OnlineShare Online
 

Kommentare