Séries VF 720p | Preacher | Soredemo Sekai wa Utsukushii
 


 

DNS SERVER AENDERNum der staatlichen Zensur zu umgehen. Sollten wir von eurem Provider geseprrt werden, nutzt den TOR BROWSER oder ändert euren DNS SERVER.

Filmwünsche können bei uns im Forum abgegeben werden

Wir Speichern Nicht




 
 
 
Top Releases
The.Kings.Ring.2018.DUAL.COM...
Stronger.2017.German.DL.AC3....
Junges.Licht.2016.German.AC3...
Freddy.Eddy.2016.GERMAN.1080...
Freddy.Eddy.2016.GERMAN.720p...
Freddy.Eddy.2016.GERMAN.1080...
Breathe.2017.DUAL.COMPLETE.B...
Roman.J.Israel.Esq.Die.Wahrh...
The.Kings.Ring.Die.letzte.Sc...
The.Kings.Ring.Die.letzte.Sc...

Cinedubs
Skyscraper.2018.German.AC3LD...
Jurassic.World.2.Das.gefalle...
Jurassic.World.2.Das.gefalle...
Jurassic.World.2.Das.gefalle...
Skyscraper.2018.German.AC3LD...
Skyscraper.2018.German.AC3LD...
Die.Biene.Maja.2.Die.Honigsp...
Die.Biene.Maja.2.Die.Honigsp...
Loving.Pablo.2017.German.AC3...
Loving.Pablo.2017.German.AC3...

Neuerscheinungen 2017-18
Dont.Move.Serpent.2017.MULTi...
Proud.Mary.2018.MULTi.COMPLE...
Open.the.Door.Nightworld.201...
Birth.of.the.Dragon.2016.MUL...
Birth.of.the.Dragon.2016.Ger...
Birth.of.the.Dragon.2016.Ger...
China.Salesman.2017.German.D...
China.Salesman.2017.German.7...
Global.Storm.Die.finale.Kata...
Dont.Move.Halt.still.2017.Ge...

XXX
SpyFam.18.08.27.Jasmine.Grey...
TransAngels.18.01.22.Kimberl...
RKPrime.18.07.06.Lela.Star.B...
SisLovesMe.18.07.06.Vienna.R...
PureTaboo.18.07.05.Kenna.Jam...
Spizoo.18.07.05.Jessica.Jaym...
PropertySex.18.07.06.Ashley....
TittyAttack.18.08.27.Kenzie....
Private.18.08.27.Julia.De.Lu...
TheLifeErotic.18.07.06.Raisa...
RKPrime.18.08.27.Victoria.Ju...
PublicAgent.18.07.05.Paulina...
TransAngels.18.01.15.Alisia....
Private.18.07.06.Vanessa.Dec...
TheLisaAnn.18.08.27.Sexy.Wor...
RealWifeStories.18.07.06.Mis...
Throated.18.07.06.India.Summ...
TonightsGirlfriend.18.07.06....
ReadyOrNotHereICum.18.08.27....
RealWifeStories.18.07.05.Ari...

3D
Avengers.Infinity.War.3D.201...
Avengers.Infinity.War.3D.201...
Rampage.Big.Meets.Bigger.3D....
Rampage.Big.Meets.Bigger.3D....
Rampage.Big.Meets.Bigger.3D....
Winter.Games.3D.2013.DUAL.CO...
Tomb.Raider.3D.2018.German.7...
Rampage.Big.Meets.Bigger.3D....
Rampage.Big.Meets.Bigger.3D....
Tomb.Raider.3D.2018.MULTi.CO...
Pacific.Rim.Uprising.3D.2018...
Ready.Player.One.3D.2018.Ger...
Rampage.-.Big.Meets.Bigger.2...
Ready.Player.One.2018.3D.HOU...
Ready.Player.One.2018.3D.HSB...

Old_Stuff
Vikings.S02.German.DL.1080p....
Be.Kind.Rewind.Abgedreht.200...
Be.Kind.Rewind.Abgedreht.200...
Dracula.The.Dark.Lord.2012.G...
21.2008.German.DL.1080p.BluR...
Achtung.fertig.WK.Swissgerma...
The.Ouija.Exorcism.2015.MULT...
Meine.liebe.Rabenmutter.germ...
Da.Vincis.Demons.S01.Complet...
Eragon.Das.Vermaechtnis.der....
Adele.und.das.Geheimnis.des....
Die.fabelhafte.Welt.der.Amel...
Haus.des.Geldes.S01.German.M...
How.I.Met.Your.Mother.S01.Ge...
The.Dark.Knight.Rises.2012.M...

Filme
Stichtag.Schluss.mit.gemuetl...
Atypical.S02.German.DL.1080p...
Atypical.S02.German.DL.720p....
Atypical.S01.COMPLETE.German...
Atypical.S01.COMPLETE.German...
Marvels.Iron.Fist.S02.German...
Marvels.Iron.Fist.S02.German...
Coldwater.Nur.das.Ueberleben...
Tom.Clancys.Jack.Ryan.S01.CO...
Half.Nelson.2006.German.DL.1...
Cold.War.2012.German.1080p.B...
The.Last.Boy.Scout.1991.Germ...
Forrest.Gump.4K.REMASTERED.1...
Housefull.Das.Spiel.mit.der....
Elvira.Herrscherin.Der.Dunke...
Mr.Mercedes.S02.German.DD+51...
Mr.Mercedes.S02.German.DD+51...
The.Handmaids.Tale.S02.Germa...
The.Handmaids.Tale.S02.Germa...
Manta.Manta.1991.German.DD51...
Manta.der.Film.1991.German.D...
Die.Stunde.der.Patrioten.199...
El.Topo.1970.German.AC3D.DL....
Eine.Reihe.betrueblicher.Ere...

 
 
Jurassic.World.2.Das.gefallene.Koenigreich.2018.German.DL.AC3D.1080p.WebHD.x265-FuN

Jahr: 2018
Genre: Action | Abenteuer | Sci-Fi
Sprache: Deutsch AC3 | Englisch AC3
Laufzeit: 2h 8mn
Bitrate: 2 194 Kbps
Format: MKV
Größe: 1.97 GiB
Release:

Beschreibung:

Vier Jahre, nachdem der Themenpark Jurassic World vor marodierenden Dinosauriern zerstört wurde, haben die Urzeitechsen die Isla Nublar komplett für sich zurückerobert. Dort leben sie ungestört von den Menschen, sehen jedoch bald einer ganz neuen Bedrohung ins Auge: Auf der Insel befindet sich ein aktiver Vulkan, der auszubrechen und die gesamte Gegend unter Feuer und Asche zu begraben droht. Dinosaurierflüsterer Owen (Chris Pratt) und die ehemalige Parkmanagerin Claire (Bryce Dallas Howard) möchten das erneute Aussterben der Dinos um jeden Preis verhindern und kehren zur Rettung der Tiere auf die Insel zurück. Vor allem um seinen Saurier-Schützling Blue ist Owen besorgt. Der Raptor ist scheinbar unauffindbar in der Wildnis verschollen. Während Owen sich auf die Suche begibt, kommen die anderen Mitglieder seiner Expedition einer Verschwörung auf die Spur… 

 

x265




Format                                   : Matroska
Format version                           : Version 4 / Version 2
File size                                : 1.97 GiB
Duration                                 : 2h 8mn
Overall bit rate                         : 2 194 Kbps
Encoded date                             : UTC 2018-09-05 16:19:41
Writing application                      : mkvmerge v26.0.0 ('In The Game') 64-bit
Writing library                          : libebml v1.3.6 + libmatroska v1.4.9

Video
ID                                       : 1
Format                                   : HEVC
Format/Info                              : High Efficiency Video Coding
Format profile                           : Main@L4.0
Codec ID                                 : V_MPEGH/ISO/HEVC
Duration                                 : 2h 8mn
Bit rate                                 : 1 542 Kbps
Width                                    : 1 920 pixels
Height                                   : 804 pixels
Display aspect ratio                     : 2.40:1
Frame rate mode                          : Constant
Frame rate                               : 23.976 fps
Color space                              : YUV
Chroma subsampling                       : 4:2:0
Bit depth                                : 8 bits
Bits/(Pixel*Frame)                       : 0.042
Stream size                              : 1.38 GiB (70%)
Writing library                          : x265 2.8:[Windows][GCC 7.1.0][64 bit] 8bit+10bit+12bit
Encoding settings                        : cpuid=1111039 / frame-threads=3 / numa-pools=8 / wpp / no-pmode / no-pme / no-psnr / no-ssim / log-level=2 / input-csp=1 / input-res=1920x804 / interlace=0 / total-frames=0 / level-idc=0 / high-tier=1 / uhd-bd=0 / ref=3 / no-allow-non-conformance / no-repeat-headers / annexb / no-aud / no-hrd / info / hash=0 / no-temporal-layers / open-gop / min-keyint=24 / keyint=240 / gop-lookahead=0 / bframes=4 / b-adapt=2 / b-pyramid / bframe-bias=0 / rc-lookahead=20 / lookahead-slices=5 / scenecut=40 / radl=0 / no-intra-refresh / ctu=64 / min-cu-size=8 / no-rect / no-amp / max-tu-size=32 / tu-inter-depth=1 / tu-intra-depth=1 / limit-tu=0 / rdoq-level=0 / dynamic-rd=0.00 / no-ssim-rd / signhide / no-tskip / nr-intra=0 / nr-inter=0 / no-constrained-intra / no-strong-intra-smoothing / max-merge=2 / limit-refs=3 / no-limit-modes / me=1 / subme=2 / merange=57 / temporal-mvp / weightp / no-weightb / no-analyze-src-pics / deblock=0:0 / no-sao / no-sao-non-deblock / rd=3 / no-early-skip / rskip / no-fast-intra / no-tskip-fast / no-cu-lossless / no-b-intra / no-splitrd-skip / rdpenalty=0 / psy-rd=2.00 / psy-rdoq=0.00 / no-rd-refine / no-lossless / cbqpoffs=0 / crqpoffs=0 / rc=crf / crf=22.0 / qcomp=0.60 / qpstep=4 / stats-write=0 / stats-read=0 / ipratio=1.40 / pbratio=1.30 / aq-mode=1 / aq-strength=1.00 / cutree / zone-count=0 / no-strict-cbr / qg-size=32 / no-rc-grain / qpmax=69 / qpmin=0 / no-const-vbv / sar=1 / overscan=0 / videoformat=5 / range=0 / colorprim=1 / transfer=1 / colormatrix=1 / chromaloc=0 / display-window=0 / max-cll=0,0 / min-luma=0 / max-luma=255 / log2-max-poc-lsb=8 / vui-timing-info / vui-hrd-info / slices=1 / no-opt-qp-pps / no-opt-ref-list-length-pps / no-multi-pass-opt-rps / scenecut-bias=0.05 / no-opt-cu-delta-qp / no-aq-motion / no-hdr / no-hdr-opt / no-dhdr10-opt / no-idr-recovery-sei / analysis-reuse-level=5 / scale-factor=0 / refine-intra=0 / refine-inter=0 / refine-mv=0 / no-limit-sao / ctu-info=0 / no-lowpass-dct / refine-mv-type=0 / copy-pic=1 / max-ausize-factor=1.0 / no-dynamic-refine / no-single-sei
Default                                  : Yes
Forced                                   : No
DURATION                                 : 02:08:17.941000000
NUMBER_OF_FRAMES                         : 184566
NUMBER_OF_BYTES                          : 1523995609
_STATISTICS_WRITING_APP                  : mkvmerge v26.0.0 ('In The Game') 64-bit
_STATISTICS_WRITING_DATE_UTC             : 2018-09-05 16:19:41
_STATISTICS_TAGS                         : BPS DURATION NUMBER_OF_FRAMES NUMBER_OF_BYTES

Audio #1
ID                                       : 2
Format                                   : AC-3
Format/Info                              : Audio Coding 3
Mode extension                           : CM (complete main)
Format settings, Endianness              : Big
Codec ID                                 : A_AC3
Duration                                 : 2h 8mn
Bit rate mode                            : Constant
Bit rate                                 : 224 Kbps
Channel(s)                               : 2 channels
Channel positions                        : Front: L R
Sampling rate                            : 48.0 KHz
Bit depth                                : 16 bits
Compression mode                         : Lossy
Delay relative to video                  : -47ms
Stream size                              : 206 MiB (10%)
Title                                    : Stereo
Language                                 : German
Default                                  : Yes
Forced                                   : Yes
DURATION                                 : 02:08:18.048000000
NUMBER_OF_FRAMES                         : 240564
NUMBER_OF_BYTES                          : 215545344
_STATISTICS_WRITING_APP                  : mkvmerge v26.0.0 ('In The Game') 64-bit
_STATISTICS_WRITING_DATE_UTC             : 2018-09-05 16:19:41
_STATISTICS_TAGS                         : BPS DURATION NUMBER_OF_FRAMES NUMBER_OF_BYTES

Audio #2
ID                                       : 3
Format                                   : AC-3
Format/Info                              : Audio Coding 3
Mode extension                           : CM (complete main)
Format settings, Endianness              : Big
Codec ID                                 : A_AC3
Duration                                 : 2h 8mn
Bit rate mode                            : Constant
Bit rate                                 : 384 Kbps
Channel(s)                               : 6 channels
Channel positions                        : Front: L C R, Side: L R, LFE
Sampling rate                            : 48.0 KHz
Bit depth                                : 16 bits
Compression mode                         : Lossy
Delay relative to video                  : -47ms
Stream size                              : 352 MiB (18%)
Title                                    : Surround
Language                                 : English
Default                                  : No
Forced                                   : No
DURATION                                 : 02:08:17.984000000
NUMBER_OF_FRAMES                         : 240562
NUMBER_OF_BYTES                          : 369503232
_STATISTICS_WRITING_APP                  : mkvmerge v26.0.0 ('In The Game') 64-bit
_STATISTICS_WRITING_DATE_UTC             : 2018-09-05 16:19:41
_STATISTICS_TAGS                         : BPS DURATION NUMBER_OF_FRAMES NUMBER_OF_BYTES

Text
ID                                       : 4
Format                                   : ASS
Codec ID                                 : S_TEXT/ASS
Codec ID/Info                            : Advanced Sub Station Alpha
Compression mode                         : Lossless
Title                                    : full hearing impaired
Language                                 : English
Default                                  : No
Forced                                   : No
DURATION                                 : 02:07:04.082000000
NUMBER_OF_FRAMES                         : 1771
NUMBER_OF_BYTES                          : 86123
_STATISTICS_WRITING_APP                  : mkvmerge v26.0.0 ('In The Game') 64-bit
_STATISTICS_WRITING_DATE_UTC             : 2018-09-05 16:19:41
_STATISTICS_TAGS                         : BPS DURATION NUMBER_OF_FRAMES NUMBER_OF_BYTES



Download:
Share Online Share OnlineShare OnlineShare Online
 

Kommentare